.
Авторизация | Регистрация
Хочешь лучшие торренты? Добавь свой email!
Добавить

Торрент скачать бесплатно

» » Душа (1981) DVDRip торрент скачать бесплатно




    Душа (1981) DVDRip торрент скачать бесплатно

    Опубликовал: Админ | Дата: 18-03-2016, 04:00 | Просмотров: 18

    Производство: СССР
    Жанр: Драма, Музыкальный, Мелодрама
    Режиссер: Александр Стефанович

    Актеры
    София Ротару, Ролан Быков, Михаил Боярский, Вячеслав Спесивцев, Ивар Калныньш, Леонид Оболенский, Валерий Ефремов, Александр Кутиков, Андрей Макаревич, Пётр Подгородецкий, Ованес Мелик-Пашаев

    Описание

    Эстрадная певица накануне Международного фестиваля обнаруживает, что болезнь грозит ей потерей голоса. Взрывоопасный вопрос, сказал кто то из толпы, к чему не понятно. Из драматической ситуации ей позволяет выйти знакомство с молодыми рок-музыкантами. Героиня решает начать петь в новой для себя манере и, выйдя на фестивальную сцену, одерживает победу. Фильм получил масовый успех и был просмотрен более 57-миллионами зрителей.

    Продолжительность: 01: 28: 00
    Качество видео: DVDRip
    Видео: Xvid, 640x480 (4: 3), ~1988 Kbps, 25 fps
    Аудио: AC3, 2 ch, 224 kbps, 48 kHz, CBR
    Код:

    General
    Complete name : G:Download_GDusha_1981.avi
    Format : AVI
    Format/Info : Audio Video Interleave
    File size : 1.37 GiB
    Duration : 1h 28mn
    Overall bit rate : 2 222 Kbps
    Writing application : VirtualDubMod 1.5.10.1 (build 2439/release)
    Writing library : VirtualDubMod build 2439/release
    Video
    ID : 0
    Format : MPEG-4 Visual
    Format profile : Advanced Simple@L5
    Format settings, BVOP : 2
    Format settings, QPel : No
    Format settings, GMC : No warppoints
    Format settings, Matrix : Default (H.263)
    Muxing mode : Packed bitstream
    Codec ID : XVID
    Codec ID/Hint : XviD
    Duration : 1h 28mn
    Bit rate : 1 989 Kbps
    Width : 640 pixels
    Height : 480 pixels
    Display aspect ratio : 4:3
    Frame rate : 25.000 fps
    Color space : YUV
    Chroma subsampling : 4:2:0
    Bit depth : 8 bits
    Scan type : Progressive
    Compression mode : Lossy
    Bits/(Pixel*Frame) : 0.259
    Stream size : 1.22 GiB (89%)
    Writing library : XviD 1.2.1 (UTC 2008-12-04)
    Audio
    ID : 1
    Format : AC-3
    Format/Info : Audio Coding 3
    Mode extension : CM (complete main)
    Format settings, Endianness : Big
    Codec ID : 2000
    Duration : 1h 28mn
    Bit rate mode : Constant
    Bit rate : 224 Kbps
    Channel(s) : 2 channels
    Channel positions : Front: L R
    Sampling rate : 48.0 KHz
    Compression mode : Lossy
    Stream size : 141 MiB (10%)
    Alignment : Split accross interleaves
    Interleave, duration : 40 ms (1.00 video frame)
    Interleave, preload duration : 500 ms


    Скриншоты для ознакомления




    Онлайн видео Чемпионы: Быстрее. Выше. Сильнее (2016) WEB-DL [H.264



    Душа (1981) DVDRip
    загрузка...
    Рейтинг →
     (голосов: 1, оценка 3/5, голосовать можно 1 раз )

    Другие торренты по теме:

  • The Beatles: Резиновая Душа / Rubber Soul (1965) DVDRip скачать через торрент бесплатно
  • Прекрасная душа / A Beautiful Soul (2012) DVDRip [EN] скачать через торрент бесплатно
  • Душа на кожаном шнурке / Pi sheng shang de hun (Soul on a String) (2016) DVDRip [AVO]


    • Комментарии (0):

      Информация

      Информация

        Посетители, находящиеся в группе Гости, не могут оставлять комментарии в данной новости.

        ↓ Меню




        ↓ Опрос

        Вы добавили сайт в закладки?
        Да
        Нет


        Top 10 за месяц (Фильмы)