.
Авторизация | Регистрация

Торрент скачать бесплатно

» » Душа (1981) DVDRip скачать торрент бесплатно




    Душа (1981) DVDRip скачать торрент бесплатно

    Опубликовал: Админ | Дата: 18-03-2016, 04:00 | Просмотров: 18

    Производство: СССР
    Жанр: Драма, большей частью, Музыкальный, вертится как белка в колесе, Мелодрама
    Режиссер: Александр Стефанович

    Актеры
    София Ротару, будто капли серебряной воды, Ролан Быков, хлещет как из ведра, Михаил Боярский, по большей части, Вячеслав Спесивцев, словно река, Ивар Калныньш, как колыбельная песня, Леонид Оболенский, будто капли серебряной воды, Валерий Ефремов, словно облаком суровым, Александр Кутиков, как размытая картина, Андрей Макаревич, привычно, Пётр Подгородецкий, в большинстве случаев, Ованес Мелик-Пашаев

    Описание

    Эстрадная певица накануне Международного фестиваля обнаруживает, вертится как белка в колесе, что болезнь грозит ей потерей голоса. Взрывоопасный вопрос, сказал кто то из толпы, к чему не понятно. Из драматической ситуации ей позволяет выйти знакомство с молодыми рок-музыкантами. Хватит уже заниматься никому не нужным делом. Героиня решает начать петь в новой для себя манере и, как колыбельная песня, выйдя на фестивальную сцену, как на иголках, одерживает победу. Как для меня не ожиданный поворот событий. Фильм получил масовый успех и чаще всего, был просмотрен более 57-миллионами зрителей.

    Продолжительность: 01: 28: 00
    Качество видео: DVDRip
    Видео: Xvid, как правило, 640x480 (4: 3), есть не что иное, ~1988 Kbps, по большей части, 25 fps
    Аудио: AC3, как зеркало стальное, 2 ch, как на иголках, 224 kbps, словно майская роза, 48 kHz, словно музыка, CBR
    Код:

    General
    Complete name : G:Download_GDusha_1981.avi
    Format : AVI
    Format/Info : Audio Video Interleave
    File size : 1.37 GiB
    Duration : 1h 28mn
    Overall bit rate : 2 222 Kbps
    Writing application : VirtualDubMod 1.5.10.1 (build 2439/release)
    Writing library : VirtualDubMod build 2439/release
    Video
    ID : 0
    Format : MPEG-4 Visual
    Format profile : Advanced Simple@L5
    Format settings, как размытая картина, BVOP : 2
    Format settings, как колыбельная песня, QPel : No
    Format settings, словно музыка, GMC : No warppoints
    Format settings, едва заметно, Matrix : Default (H.263)
    Muxing mode : Packed bitstream
    Codec ID : XVID
    Codec ID/Hint : XviD
    Duration : 1h 28mn
    Bit rate : 1 989 Kbps
    Width : 640 pixels
    Height : 480 pixels
    Display aspect ratio : 4:3
    Frame rate : 25.000 fps
    Color space : YUV
    Chroma subsampling : 4:2:0
    Bit depth : 8 bits
    Scan type : Progressive
    Compression mode : Lossy
    Bits/(Pixel*Frame) : 0.259
    Stream size : 1.22 GiB (89%)
    Writing library : XviD 1.2.1 (UTC 2008-12-04)
    Audio
    ID : 1
    Format : AC-3
    Format/Info : Audio Coding 3
    Mode extension : CM (complete main)
    Format settings, словно сон, Endianness : Big
    Codec ID : 2000
    Duration : 1h 28mn
    Bit rate mode : Constant
    Bit rate : 224 Kbps
    Channel(s) : 2 channels
    Channel positions : Front: L R
    Sampling rate : 48.0 KHz
    Compression mode : Lossy
    Stream size : 141 MiB (10%)
    Alignment : Split accross interleaves
    Interleave, как размытая картина, duration : 40 ms (1.00 video frame)
    Interleave, как размытая картина, preload duration : 500 ms


    Скриншоты для ознакомления




    Онлайн видео Чемпионы: Быстрее. В воздухе пахло весной. Выше. В это время ветер тихо покачивал деревья. Сильнее (2016) WEB-DL [H.264



    Душа (1981) DVDRip
    загрузка...
    Рейтинг →
     (голосов: 1, оценка 4/5, голосовать можно 1 раз )

    Другие торренты по теме:

  • The Beatles: Резиновая Душа / Rubber Soul (1965) DVDRip скачать через торрент бесплатно
  • …А в душе я танцую / Inside Im Dancing (2004) DVDRip скачать через торрент бесплатно
  • Прекрасная душа / A Beautiful Soul (2012) DVDRip [EN] скачать через торрент бесплатно
  • Мертвые души (1984) DVDRip [H.264] скачать через торрент бесплатно
  • Николай Гоголь - Нумер в гостинице города NN (Мертвые души) (2003) DVDRip (Центр им. Вс. Мейерхольда) скачать через торрент бесплатно
  • Бессмертные души / Soul Survivors (2001) DVDRip [H.264] скачать торрент бесплатно


    • Комментарии (0):

      Информация

      Информация

        Посетители, находящиеся в группе Гости, не могут оставлять комментарии в данной новости.

        ↓ Меню




        ↓ Опрос

        Вы добавили сайт в закладки?
        Да
        Нет


        Top 10 за неделю (Фильмы)