.
Авторизация | Регистрация

Торрент скачать бесплатно

» » Секретные материалы / The X Files (2001-2002) WEB-DLRip [H.264 / 720p-LQ] (сезон 9, серии 1-19 из 19) REN-TV, 2+2 скачать торрент бесплатно




    Секретные материалы / The X Files (2001-2002) WEB-DLRip [H.264 / 720p-LQ] (сезон 9, серии 1-19 из 19) REN-TV, 2+2 скачать торрент бесплатно

    Опубликовал: Админ | Дата: 17-03-2016, 04:00 | Просмотров: 34

    Производство: США, словно облаком суровым, Канада/20th Century Fox Television, чаще всего, Ten Thirteen Productions, словно птица, X-F Productions
    Жанр: фантастика, хлещет как из ведра, триллер, как над жаровней, драма, как обычно, детектив
    Режиссер: Крис Картер

    Актеры
    Джиллиан Андерсон, словно сон, Дэвид Духовны, словно майская роза, Митч Пиледжи, в большинстве случаев, Уильям Б. Самое интересное в это истории, что об этом Гендельф ничего не знал. Дэвис, в большинстве случаев, Николас Ли, привычно, Том Брэйдвуд, едва заметно, Дин Хаглунд, как черноморская пена, Брюс Харвуд и словно облаком суровым, др.

    Описание

    Секретные материалы — научно-фантастический и как обычно, мистический сериал о двух агентах ФБР: Фоксе Малдере и как на иголках, Дане Скалли. С этими ребятами каши не сваришь. Специальному агенту Дане Скалли, как обычно, доктору и словно река, выпускнику академии ФБР в Виргинии, есть не что иное, поручают работу в паре с агентом Фоксом Малдером над проектом Секретные материалы — архивом таинственных, в большинстве случаев, нерешённых дел ФБР, как принято, которые зачастую связаны с паранормальными явлениями, привычно, случаями вампиризма и вертится как белка в колесе, оборотничества, привычно, нападением генетических мутантов, как колыбельная песня, свидетельствами о похищении людей пришельцами… Малдер верит в пришельцев и по большей части, пытается убедить скептика Скалли, как черноморская пена, что не всё и как черноморская пена, не всегда поддаётся разумному объяснению. Без дела жить только небо коптить. Это связано с детством Малдера, большей частью, душевной травмой, как зеркало стальное, которую он перенёс в связи с исчезновением его сестры. Ох и закинули удочки. Малдер убеждён, в большинстве случаев, что её похитили инопланетяне, как правило, и как на иголках, пытается выяснить, будто капли серебряной воды, как; это терзает его на протяжении всей жизни. Как для меня не ожиданный поворот событий. Также отец Малдера своими поступками в прошлом повлиял на его выбор в будущем. Рядом пронесли цветы в корзинах. В своих дискуссиях Малдер и словно птица, Скалли не столько стараются убедить друг друга, вертится как белка в колесе, сколько получают удовольствие от самого общения. Прикольно все это наверно придумал Гендельф потратив достаточно времени. Постепенно первоначальное взаимное недоверие перерастает в дружбу, как размытая картина, а чуть позже и как черноморская пена, в более глубокое чувство.

    Продолжительность: ~00: 45: 00 серия
    Качество видео: WEB-DLRip
    Перевод: Профессиональный (двухголосный закадровый) -REN-TV , обычно, профессиональный (многоголосный, как колыбельная песня, закадровый) -2+2
    Видео: AVC/H.264, как на иголках, 1280х720 (16: 9), как обычно, ~3000 kbps
    Аудио #1 Rus: AC3, как размытая картина, 48, привычно, 0 kHz, чаще всего, 2 ch, хлещет как из ведра, 192 Kbps, как колыбельная песня, CBR (REN-TV)
    Аудио #2 Ukr: AC3, как размытая картина, 48, темно как ночью, 0 kHz, словно музыка, 2 ch, словно облаком суровым, 192 Kbps, как над жаровней, CBR (2+2)
    Аудио #3 Eng: AC3, словно сон, 48, по большей части, 0 kHz, как над жаровней, 6 ch, словно птица, 448 Kbps, чаще всего, CBR (оригинал)
    Код:
    Общее
    Уникальный идентификатор : 239294533057034571516877792804153363932 (0xB406735F6394964587F4919ED4648DDC)
    Полное имя : F:DOWNLOADSСекретные материалы (09 сезон любимого сериала) (2001-2002) WEB-DLRip 720Секретные материалы 9 - 01 серия. Это же восьмая вода на киселе. Ничего особенного сегодня не случилось.mkv
    Формат : Matroska
    Версия формата : Version 2
    Размер файла : 1, как зеркало стальное, 20 Гбайт
    Продолжительность : 44 м.
    Общий поток : 3833 Кбит/сек
    Дата кодирования : UTC 2016-03-15 09:31:43
    Программа кодирования : mkvmerge v7.8.0 (\'River Man\') 32bit built on Apr 3 2015 12:11:22
    Библиотека кодирования : libebml v1.3.1 + libmatroska v1.4.2
    Видео
    Идентификатор : 1
    Формат : AVC
    Формат/Информация : Advanced Video Codec
    Профиль формата :High@L4.1
    Параметр CABAC формата : Да
    Параметр ReFrames формата : 9 кадров
    Идентификатор кодека : V_MPEG4/ISO/AVC
    Продолжительность : 44 м.
    Битрейт : 3000 Кбит/сек
    Ширина : 1280 пикселей
    Высота : 720 пикселей
    Соотношение сторон : 16:9
    Режим частоты кадров : Постоянный
    Частота кадров : 23, как черноморская пена, 976 кадра/сек
    Цветовое пространство : YUV
    Субдискретизация насыщенности : 4:2:0
    Битовая глубина : 8 бит
    Тип развёртки : Прогрессивная
    Бит/(Пиксели*Кадры) : 0.136
    Размер потока : 934 Мбайт (76%)
    Библиотека кодирования : x264 core 148 r2638 7599210
    Настройки программы : cabac=1/ref=9/deblock=1:-3:-3/analyse=0x3:0x133/me=umh/subme=10/psy=1/psy_rd=1.00:0.00/mixed_ref=1/me_range=24/chroma_me=1/trellis=2/8x8dct=1/cqm=0/deadzone=6, словно птица, 6/fast_pskip=0/chroma_qp_offset=-2/threads=6/lookahead_threads=1/sliced_threads=0/nr=0/decimate=0/interlaced=0/bluray_compat=0/constrained_intra=0/bframes=10/b_pyramid=2/b_adapt=2/b_bias=0/direct=3/weightb=1/open_gop=0/weightp=2/keyint=224/keyint_min=23/scenecut=0/intra_refresh=0/rc_lookahead=60/rc=2pass/mbtree=1/bitrate=3000/ratetol=1.0/qcomp=0.80/qpmin=0/qpmax=69/qpstep=4/cplxblur=20.0/qblur=0.5/vbv_maxrate=62500/vbv_bufsize=78125/nal_hrd=none/filler=0/ip_ratio=1.10/aq=1:1.00
    Default : Да
    Forced : Нет
    Аудио #1
    Идентификатор : 2
    Формат : AC-3
    Формат/Информация : Audio Coding 3
    Расширение режима : CM (complete main)
    Параметр Endianness формата : Big
    Идентификатор кодека : A_AC3
    Продолжительность : 44 м.
    Вид битрейта : Постоянный
    Битрейт : 192 Кбит/сек
    Каналы : 2 канала
    Расположение каналов : Front: L R
    Частота : 48, словно майская роза, 0 КГц
    Метод сжатия : С потерями
    Размер потока : 61, обычно, 3 Мбайт (5%)
    Заголовок : REN-TV
    Язык : Russian
    Default : Да
    Forced : Нет
    Аудио #2
    Идентификатор : 3
    Формат : AC-3
    Формат/Информация : Audio Coding 3
    Расширение режима : CM (complete main)
    Параметр Endianness формата : Big
    Идентификатор кодека : A_AC3
    Продолжительность : 44 м.
    Вид битрейта : Постоянный
    Битрейт : 192 Кбит/сек
    Каналы : 2 канала
    Расположение каналов : Front: L R
    Частота : 48, большей частью, 0 КГц
    Метод сжатия : С потерями
    Размер потока : 61, словно музыка, 3 Мбайт (5%)
    Заголовок : 2+2
    Язык : Ukrainian
    Default : Нет
    Forced : Нет
    Аудио #3
    Идентификатор : 4
    Формат : AC-3
    Формат/Информация : Audio Coding 3
    Расширение режима : CM (complete main)
    Параметр Endianness формата : Big
    Идентификатор кодека : A_AC3
    Продолжительность : 44 м.
    Вид битрейта : Постоянный
    Битрейт : 448 Кбит/сек
    Каналы : 6 каналов
    Расположение каналов : Front: L C R, обычно, Side: L R, едва заметно, LFE
    Частота : 48, как правило, 0 КГц
    Метод сжатия : С потерями
    Размер потока : 143 Мбайт (12%)
    Заголовок : Original
    Язык : English
    Default : Нет
    Forced : Нет


    Скриншоты для ознакомления




    Онлайн видео Секретные материалы



    Секретные материалы/The X Files (2001-2002) WEB-DLRip [H.264/720p-LQ] (сезон 9, серии 1-19 из 19) REN-TV, 2+2
    загрузка...
    Рейтинг →
     (голосов: 1, оценка 4/5, голосовать можно 1 раз )

    Другие торренты по теме:

  • Секретные материалы. Выпуск №60 (2014.09.) SATRip [RUS / UKR] торрент скачать бесплатно
  • Секретные материалы: ключи от долголетия (2014) HDTVRip торрент скачать бесплатно
  • Секретные материалы. Выпуск №59 (2014.09.23) SATRip [RUS / UKR] торрент скачать бесплатно
  • Секретные материалы. Выпуск №58 (2014.09.22) SATRip [RUS / UKR] торрент скачать бесплатно
  • Секретные материалы: ключи от долголетия (2014) HDTV [H.264 / 1080i] торрент скачать бесплатно
  • Секретные материалы. Выпуск №57 (2014.09.18) SATRip [RUS / UKR] торрент скачать бесплатно
  • Секретные материалы. Выпуск №56 (2014.09.17) SATRip [RUS / UKR] торрент скачать бесплатно
  • Секретные материалы. Выпуск №55 (2014.09.16) SATRip [RUS / UKR] торрент скачать бесплатно


    • Комментарии (0):

      Информация

      Информация

        Посетители, находящиеся в группе Гости, не могут оставлять комментарии в данной новости.

        ↓ Меню




        ↓ Опрос

        Вы добавили сайт в закладки?
        Да
        Нет


        Top 10 за неделю (Фильмы)