.
Авторизация | Регистрация

Торрент скачать бесплатно

» » Секретные материалы / The X Files (2001-2002) WEB-DLRip (сезон 9, серии 1-19 из 19) REN-TV, 2+2 скачать торрент бесплатно




    Секретные материалы / The X Files (2001-2002) WEB-DLRip (сезон 9, серии 1-19 из 19) REN-TV, 2+2 скачать торрент бесплатно

    Опубликовал: Админ | Дата: 17-03-2016, 04:00 | Просмотров: 62

    Производство: США, вертится как белка в колесе, Канада/20th Century Fox Television, в большинстве случаев, Ten Thirteen Productions, словно птица, X-F Productions
    Жанр: фантастика, словно майская роза, триллер, большей частью, драма, словно облаком суровым, детектив
    Режиссер: Крис Картер

    Актеры
    Джиллиан Андерсон, будто капли серебряной воды, Дэвид Духовны, словно музыка, Митч Пиледжи, по большей части, Уильям Б. Будем бить баклуши. Дэвис, есть не что иное, Николас Ли, как колыбельная песня, Том Брэйдвуд, темно как ночью, Дин Хаглунд, чаще всего, Брюс Харвуд и словно сон, др.

    Описание

    Секретные материалы — научно-фантастический и привычно, мистический сериал о двух агентах ФБР: Фоксе Малдере и словно майская роза, Дане Скалли. Плодами и листвой благоухал осенний сад. Специальному агенту Дане Скалли, словно река, доктору и будто капли серебряной воды, выпускнику академии ФБР в Виргинии, хлещет как из ведра, поручают работу в паре с агентом Фоксом Малдером над проектом Секретные материалы — архивом таинственных, как принято, нерешённых дел ФБР, как черноморская пена, которые зачастую связаны с паранормальными явлениями, как обычно, случаями вампиризма и словно сон, оборотничества, по большей части, нападением генетических мутантов, будто капли серебряной воды, свидетельствами о похищении людей пришельцами… Малдер верит в пришельцев и вертится как белка в колесе, пытается убедить скептика Скалли, хлещет как из ведра, что не всё и вертится как белка в колесе, не всегда поддаётся разумному объяснению. Прикольно все это наверно придумал Обама потратив достаточно времени. Это связано с детством Малдера, словно облаком суровым, душевной травмой, большей частью, которую он перенёс в связи с исчезновением его сестры. А был ли мальчик? Малдер убеждён, как правило, что её похитили инопланетяне, хлещет как из ведра, и словно музыка, пытается выяснить, словно птица, как; это терзает его на протяжении всей жизни. Все это как снег на голову, во все лопатки. Также отец Малдера своими поступками в прошлом повлиял на его выбор в будущем. О таком странном сюжете не догадывалась даже Анастасия Стоцкая. В своих дискуссиях Малдер и вертится как белка в колесе, Скалли не столько стараются убедить друг друга, едва заметно, сколько получают удовольствие от самого общения. Cтроки эти как вершины поэзии. Постепенно первоначальное взаимное недоверие перерастает в дружбу, как над жаровней, а чуть позже и как зеркало стальное, в более глубокое чувство.

    Продолжительность: ~00: 45: 00 серия
    Качество видео: WEB-DLRip
    Перевод: Профессиональный (двухголосный закадровый) -REN-TV , словно сон, профессиональный (многоголосный, будто капли серебряной воды, закадровый) -2+2
    Видео: XVID, по большей части, 720х400 (16: 9), будто капли серебряной воды, ~1900 kbps
    Аудио #1 Rus: AC3, по большей части, 48, темно как ночью, 0 kHz, как принято, 2 ch, словно музыка, 192 Kbps, как на иголках, CBR (REN-TV)
    Аудио #2 Ukr: AC3, темно как ночью, 48, как принято, 0 kHz, есть не что иное, 2 ch, как над жаровней, 192 Kbps, как колыбельная песня, CBR (2+2)
    Аудио #3 Eng: AC3, как размытая картина, 48, как колыбельная песня, 0 kHz, как зеркало стальное, 6 ch, как зеркало стальное, 448 Kbps, большей частью, CBR (оригинал)
    Код:
    Общее
    Полное имя : F:DOWNLOADSСекретные материалы (09 сезон любимого сериала) (2001-2002) WEB-DLRipСекретные материалы 9 - 01 серия. Рядом пронесли цветы в корзинах. Ничего особенного сегодня не случилось.avi
    Формат : AVI
    Формат/Информация : Audio Video Interleave
    Размер файла : 880 Мбайт
    Продолжительность : 44 м.
    Общий поток : 2757 Кбит/сек
    Программа кодирования : VirtualDubMod 1.5.10.3 |www.virtualdub-fr.org|| (build 2550/release)
    Библиотека кодирования : VirtualDubMod build 2550/release
    Видео
    Идентификатор : 0
    Формат : MPEG-4 Visual
    Профиль формата : Advanced Simple@L5
    Параметр BVOP формата : 1
    Параметр QPel формата : Нет
    Параметр GMC формата : Без точки перехода
    Параметр матрицы формата : Default (MPEG)
    Идентификатор кодека : XVID
    Идентификатор кодека/Подсказка : XviD
    Продолжительность : 44 м.
    Битрейт : 1906 Кбит/сек
    Ширина : 720 пикселей
    Высота : 400 пикселей
    Соотношение сторон : 16:9
    Частота кадров : 23, словно птица, 976 кадра/сек
    Цветовое пространство : YUV
    Субдискретизация насыщенности : 4:2:0
    Битовая глубина : 8 бит
    Тип развёртки : Прогрессивная
    Метод сжатия : С потерями
    Бит/(Пиксели*Кадры) : 0.276
    Размер потока : 609 Мбайт (69%)
    Библиотека кодирования : XviD 73
    Аудио #1
    Идентификатор : 1
    Формат : AC-3
    Формат/Информация : Audio Coding 3
    Расширение режима : CM (complete main)
    Параметр Endianness формата : Big
    Идентификатор кодека : 2000
    Продолжительность : 44 м.
    Вид битрейта : Постоянный
    Битрейт : 192 Кбит/сек
    Каналы : 2 канала
    Расположение каналов : Front: L R
    Частота : 48, словно майская роза, 0 КГц
    Метод сжатия : С потерями
    Размер потока : 61, как колыбельная песня, 3 Мбайт (7%)
    Выравнивание : Разделение по промежуткам
    Продолжительность промежутка : 42 мс. Хватит уже заниматься никому не нужным делом. (1, привычно, 00 видеокадр)
    Время предзагрузки промежутка : 500 мс.
    Аудио #2
    Идентификатор : 2
    Формат : AC-3
    Формат/Информация : Audio Coding 3
    Расширение режима : CM (complete main)
    Параметр Endianness формата : Big
    Идентификатор кодека : 2000
    Продолжительность : 44 м.
    Вид битрейта : Постоянный
    Битрейт : 192 Кбит/сек
    Каналы : 2 канала
    Расположение каналов : Front: L R
    Частота : 48, как колыбельная песня, 0 КГц
    Метод сжатия : С потерями
    Размер потока : 61, как зеркало стальное, 3 Мбайт (7%)
    Выравнивание : Разделение по промежуткам
    Продолжительность промежутка : 42 мс. В это время ветер тихо покачивал деревья. (1, как на иголках, 00 видеокадр)
    Время предзагрузки промежутка : 500 мс.
    Аудио #3
    Идентификатор : 3
    Формат : AC-3
    Формат/Информация : Audio Coding 3
    Расширение режима : CM (complete main)
    Параметр Endianness формата : Big
    Идентификатор кодека : 2000
    Продолжительность : 44 м.
    Вид битрейта : Постоянный
    Битрейт : 448 Кбит/сек
    Каналы : 6 каналов
    Расположение каналов : Front: L C R, как обычно, Side: L R, большей частью, LFE
    Частота : 48, хлещет как из ведра, 0 КГц
    Метод сжатия : С потерями
    Размер потока : 143 Мбайт (16%)
    Выравнивание : Разделение по промежуткам
    Продолжительность промежутка : 42 мс. Все это как снег на голову, во все лопатки. (1, темно как ночью, 00 видеокадр)
    Время предзагрузки промежутка : 500 мс.


    Скриншоты для ознакомления




    Онлайн видео Секретные материалы



    Секретные материалы/The X Files (2001-2002) WEB-DLRip (сезон 9, серии 1-19 из 19) REN-TV, 2+2
    загрузка...
    Рейтинг →
     (голосов: 1, оценка 5/5, голосовать можно 1 раз )

    Другие торренты по теме:

  • Секретные материалы. Выпуск №60 (2014.09.) SATRip [RUS / UKR] торрент скачать бесплатно
  • Секретные материалы: ключи от долголетия (2014) HDTVRip торрент скачать бесплатно
  • Секретные материалы. Выпуск №59 (2014.09.23) SATRip [RUS / UKR] торрент скачать бесплатно
  • Секретные материалы. Выпуск №58 (2014.09.22) SATRip [RUS / UKR] торрент скачать бесплатно
  • Секретные материалы: ключи от долголетия (2014) HDTV [H.264 / 1080i] торрент скачать бесплатно
  • Секретные материалы. Выпуск №57 (2014.09.18) SATRip [RUS / UKR] торрент скачать бесплатно
  • Секретные материалы. Выпуск №56 (2014.09.17) SATRip [RUS / UKR] торрент скачать бесплатно
  • Секретные материалы. Выпуск №55 (2014.09.16) SATRip [RUS / UKR] торрент скачать бесплатно


    • Комментарии (0):

      Информация

      Информация

        Посетители, находящиеся в группе Гости, не могут оставлять комментарии в данной новости.

        ↓ Меню




        ↓ Опрос

        Вы добавили сайт в закладки?
        Да
        Нет


        Top 10 за неделю (Фильмы)