.
Авторизация | Регистрация
Хочешь лучшие торренты? Добавь свой email!
Добавить

Торрент скачать бесплатно

» » Последний мент (2016) SATRip [H.264] (сезон 2, 1-3 серия из 15) (Обновляемая) торрент скачать бесплатно




    Последний мент (2016) SATRip [H.264] (сезон 2, 1-3 серия из 15) (Обновляемая) торрент скачать бесплатно

    Опубликовал: Админ | Дата: 17-03-2016, 04:00 | Просмотров: 50

    Производство: Россия, ООО Спутник Восток Продакшн
    Жанр: Детектив, Драма, Комедия
    Режиссер: Михаил Жерневский, Алексей Шапарев

    Актеры
    Гоша Куценко, Анатолий Руденко, Александр Борисов , Сергей Удовик, Полина Куценко, Наталия Вдовина, Виктория Корлякова, Дарья Пашкова, Константин Котенков, Анастасия Лазарева, Татьяна Плетнёва, Наталья Колдашёва, Армен Арушанян, Екатерина Сахарова, Виталий Вашедский, Роман Селецкий, Егор Губарев, Ксения Ефремова, Вероника Айги, Лада Негруль, Сергей Фролов , Николай Малаев, Андрей Кочинов, Александр Дуда, Александр Руснак, Константин Столяров, Мария Чувилина, Фёдор Подчезерцев, Евгения Евчина, Алеся Гузько, Наталия Диевская, Екатерина Буйлова, Елена Панова , Константин Кононов, Иван Гордиенко, Станислав Эрдлей, Ростислав Королькевич, Татьяна Косач-Брындина, Юлия Пожидаева, Максим Ратинер

    Описание

    В новом сезон любимого сериалае перед зрителями в полном объёме раскроются характеры всех главных героев. Искренний и принципиальный Дивов, молодой и необстрелянный Васильев, неравнодушный к делу начальник УВД Кирсанов, внешне невозмутимый, но ранимый судмедэксперт Терехов, сдержанная на службе и романтичная в жизни психолог Татьяна, бывшая жена Лиза, пытающаяся расслышать свое сердце, и дочь Юля – каждого персонажа сценаристы заставят побороться за своё счастье. В грядущих сериях зрителям приоткроется завеса тайны личной жизни начальника и друга Дивова Кирсанова. Прикольно все это наверно придумал Человек паук потратив достаточно времени. Самые сложные испытания ждут полковника не в кабинетах генералов, а в личной жизни. Спасают ли погоны от одиночества? И как застенчивый с женщинами полицейский сможет найти ту единственную?Роман Юли и Андрея, переставший быть тайной в первом сезон любимого сериалае, снова заставит родителей понервничать. Влюблённые будут соревноваться в твердости характера и дразнить судьбу.

    Дата премьеры в России: 14 марта 2016 года (5 канал)
    Продолжительность: ~ 00: 37: 00
    Качество видео: SATRip
    Видео: AVC/H.264, 720х416, ~1600 Кбит/сек
    Аудио: AC3, 192 Кбит/сек, 2 канала, CBR
    Код:

    Общее
    Уникальный идентификатор : 176037332799094614307457506227492588849 (0x846F8E9B45FC45E085CED21952E58D31)
    Полное имя : I:Последний мент-2Последний мент-2_01 серия rip by_Aleksan55.mkv
    Формат : Matroska
    Версия формата : Version 2
    Размер файла : 481 Мбайт
    Продолжительность : 37 м.
    Общий поток : 1794 Кбит/сек
    Дата кодирования : UTC 2016-03-14 15:03:45
    Программа кодирования : mkvmerge v7.8.0 (\'River Man\') 32bit built on Apr 3 2015 12:11:22
    Библиотека кодирования : libebml v1.3.1 + libmatroska v1.4.2
    Видео
    Идентификатор : 1
    Формат : AVC
    Формат/Информация : Advanced Video Codec
    Профиль формата :High@L4.1
    Параметр CABAC формата : Да
    Параметр ReFrames формата : 9 кадров
    Идентификатор кодека : V_MPEG4/ISO/AVC
    Продолжительность : 37 м.
    Битрейт : 1600 Кбит/сек
    Ширина : 720 пикселей
    Высота : 416 пикселей
    Соотношение сторон : 1, 731
    Режим частоты кадров : Постоянный
    Частота кадров : 25, 000 кадров/сек
    Цветовое пространство : YUV
    Субдискретизация насыщенности : 4:2:0
    Битовая глубина : 8 бит
    Тип развёртки : Прогрессивная
    Бит/(Пиксели*Кадры) : 0.214
    Размер потока : 420 Мбайт (87%)
    Библиотека кодирования : x264 core 146 r2538 121396c
    Настройки программы : cabac=1/ref=3/deblock=1:-2:-2/analyse=0x3:0x103/me=umh/subme=9/psy=1/psy_rd=1.00:0.25/mixed_ref=0/me_range=32/chroma_me=1/trellis=2/8x8dct=1/cqm=0/deadzone=6, 6/fast_pskip=1/chroma_qp_offset=-4/threads=2/lookahead_threads=4/sliced_threads=0/nr=0/decimate=0/interlaced=0/bluray_compat=0/constrained_intra=0/bframes=3/b_pyramid=2/b_adapt=1/b_bias=0/direct=3/weightb=1/open_gop=0/weightp=2/keyint=250/keyint_min=25/scenecut=40/intra_refresh=0/rc_lookahead=40/rc=2pass/mbtree=1/bitrate=1600/ratetol=1.0/qcomp=0.80/qpmin=0/qpmax=69/qpstep=4/cplxblur=20.0/qblur=0.5/ip_ratio=1.10/aq=1:0.50
    Default : Да
    Forced : Нет
    Цветовой диапазон : Limited
    Основные цвета : BT.601 PAL
    Характеристики трансфера : BT.470 System B, BT.470 System G
    Коэффициенты матрицы : BT.601
    Аудио
    Идентификатор : 2
    Формат : AC-3
    Формат/Информация : Audio Coding 3
    Расширение режима : CM (complete main)
    Параметр Endianness формата : Big
    Идентификатор кодека : A_AC3
    Продолжительность : 37 м.
    Вид битрейта : Постоянный
    Битрейт : 192 Кбит/сек
    Каналы : 2 канала
    Расположение каналов : Front: L R
    Частота : 48, 0 КГц
    Метод сжатия : С потерями
    Размер потока : 51, 4 Мбайт (11%)
    Default : Да
    Forced : Нет


    Скриншоты для ознакомления




    Онлайн видео Последний мент (2016) SATRip [H.264] (сезон любимого сериала 2, 1



    Последний мент (2016) SATRip [H.264] (сезон 2, 1-3 серия из 15) (Обновляемая)
    загрузка...
    Рейтинг →
     (голосов: 1, оценка 4/5, голосовать можно 1 раз )

    Другие торренты по теме:

  • Последний мент (2015) SATRip (серии 1-2 из 40) (обновляемая) скачать через торрент бесплатно
  • Последний мент (2015) DVB (серии 1-7 из 40) (обновляемая) скачать через торрент бесплатно
  • Последний мент (2016) WEB-DL [H.264 / 1080p-LQ] (сезон 2, серия 1-2 из 15) Обновляемая
  • VA - Последний мент. Блатной суперсборник (2016) [MP3|256-320 кб / с] <Шансон>
  • Последний мент (2017) WEB-DL [H.264 / 1080p-LQ] (сезон 3, серии 1-8 из 24) (обновляемая)
  • Последний мент (2017) WEB-DL [H.264 / 1080p-LQ] (сезон 3, серии 41-44 из ) (обновляемая)


    • Комментарии (0):

      Информация

      Информация

        Посетители, находящиеся в группе Гости, не могут оставлять комментарии в данной новости.

        ↓ Меню




        ↓ Опрос

        Вы добавили сайт в закладки?
        Да
        Нет


        Top 10 за месяц (Фильмы)