.
Авторизация | Регистрация
Хочешь лучшие торренты? Добавь свой email!
Добавить

Торрент скачать бесплатно

» » Последний мент (2016) WEB-DL [H.264 / 1080p-LQ] (сезон 2, серия 1-2 из 15) Обновляемая торрент скачать бесплатно




    Последний мент (2016) WEB-DL [H.264 / 1080p-LQ] (сезон 2, серия 1-2 из 15) Обновляемая торрент скачать бесплатно

    Опубликовал: Админ | Дата: 17-03-2016, 04:00 | Просмотров: 47

    Производство: Россия, ООО Спутник Восток Продакшн
    Жанр: Детектив, Драма, Комедия
    Режиссер: Михаил Жерневский, Алексей Шапарев

    Актеры
    Гоша Куценко, Анатолий Руденко, Александр Борисов , Сергей Удовик, Полина Куценко, Наталия Вдовина, Виктория Корлякова, Дарья Пашкова, Константин Котенков, Анастасия Лазарева, Татьяна Плетнёва, Наталья Колдашёва, Армен Арушанян, Екатерина Сахарова, Виталий Вашедский, Роман Селецкий, Егор Губарев, Ксения Ефремова, Вероника Айги, Лада Негруль, Сергей Фролов , Николай Малаев, Андрей Кочинов, Александр Дуда, Александр Руснак, Константин Столяров, Мария Чувилина, Фёдор Подчезерцев, Евгения Евчина, Алеся Гузько, Наталия Диевская, Екатерина Буйлова, Елена Панова , Константин Кононов, Иван Гордиенко, Станислав Эрдлей, Ростислав Королькевич, Татьяна Косач-Брындина, Юлия Пожидаева, Максим Ратинер

    Описание

    В новом сезон любимого сериалае перед зрителями в полном объёме раскроются характеры всех главных героев. Искренний и принципиальный Дивов, молодой и необстрелянный Васильев, неравнодушный к делу начальник УВД Кирсанов, внешне невозмутимый, но ранимый судмедэксперт Терехов, сдержанная на службе и романтичная в жизни психолог Татьяна, бывшая жена Лиза, пытающаяся расслышать свое сердце, и дочь Юля – каждого персонажа сценаристы заставят побороться за своё счастье. В грядущих сериях зрителям приоткроется завеса тайны личной жизни начальника и друга Дивова Кирсанова. Самые сложные испытания ждут полковника не в кабинетах генералов, а в личной жизни. Спасают ли погоны от одиночества? И как застенчивый с женщинами полицейский сможет найти ту единственную?Роман Юли и Андрея, переставший быть тайной в первом сезон любимого сериалае, снова заставит родителей понервничать. Влюблённые будут соревноваться в твердости характера и дразнить судьбу.

    Дата премьеры в России: 14 марта 2016 года
    Продолжительность: ~ 00: 37: 00
    Качество видео: WEB-DL (1080р)
    Видео: MPEG-4 AVC, 1920x1080, ~3000 Кбит/сек
    Аудио: AC3, 192 Кбит/сек, 2 канала, CBR
    Код:

    General
    Unique ID : 151793892768145550108314420609778378 (0x1D3C044851C3634AAC0D129DF782CA)
    Complete name : D:Последний мент-2.2015.WEB-DL1080p1.Последний мент-2.2015.WEB-DL1080p..mkv
    Format : Matroska
    Format version : Version 4/Version 2
    File size : 893 MiB
    Duration : 37mn 48s
    Overall bit rate : 3 301 Kbps
    Writing application : Lavf56.25.101
    Writing library : Lavf56.25.101/Lavf56.25.101
    Video
    ID : 1
    Format : AVC
    Format/Info : Advanced Video Codec
    Format profile : High@L4
    Format settings, CABAC : Yes
    Format settings, ReFrames : 2 frames
    Codec ID : V_MPEG4/ISO/AVC
    Duration : 37mn 48s
    Bit rate : 3 043 Kbps
    Width : 1 920 pixels
    Height : 1 080 pixels
    Display aspect ratio : 16:9
    Frame rate mode : Constant
    Frame rate : 25.000 fps
    Color space : YUV
    Chroma subsampling : 4:2:0
    Bit depth : 8 bits
    Scan type : Progressive
    Bits/(Pixel*Frame) : 0.059
    Stream size : 823 MiB (92%)
    Default : Yes
    Forced : No
    Color range : Limited
    Color primaries : BT.709
    Transfer characteristics : BT.709
    Matrix coefficients : BT.709
    Audio
    ID : 2
    Format : AC-3
    Format/Info : Audio Coding 3
    Mode extension : CM (complete main)
    Format settings, Endianness : Big
    Codec ID : A_AC3
    Duration : 37mn 48s
    Bit rate mode : Constant
    Bit rate : 192 Kbps
    Channel(s) : 2 channels
    Channel positions : Front: L R
    Sampling rate : 44.1 KHz
    Frame rate : 28.711 fps (1536 spf)
    Compression mode : Lossy
    Delay relative to video : -40ms
    Stream size : 51.9 MiB (6%)
    Language : unknown
    Default : Yes
    Forced : No


    Скриншоты для ознакомления




    Онлайн видео Последний мент (2016) WEB-DL [H.264



    Последний мент (2016) WEB-DL [H.264/1080p-LQ] (сезон 2, серия 1-2 из 15) Обновляемая
    загрузка...
    Рейтинг →
     (голосов: 1, оценка 3/5, голосовать можно 1 раз )

    Другие торренты по теме:

  • Последний мент (2015) SATRip (серии 1-2 из 40) (обновляемая) скачать через торрент бесплатно
  • Последний мент (2015) DVB (серии 1-7 из 40) (обновляемая) скачать через торрент бесплатно
  • Последний мент (2016) SATRip [H.264] (сезон 2, 1-3 серия из 15) (Обновляемая)
  • VA - Последний мент. Блатной суперсборник (2016) [MP3|256-320 кб / с] <Шансон>
  • Последний мент (2017) WEB-DL [H.264 / 1080p-LQ] (сезон 3, серии 1-8 из 24) (обновляемая)
  • Последний мент (2017) WEB-DL [H.264 / 1080p-LQ] (сезон 3, серии 41-44 из ) (обновляемая)


    • Комментарии (0):

      Информация

      Информация

        Посетители, находящиеся в группе Гости, не могут оставлять комментарии в данной новости.

        ↓ Меню




        ↓ Опрос

        Вы добавили сайт в закладки?
        Да
        Нет


        Top 10 за месяц (Фильмы)