.
Авторизация | Регистрация
Хочешь лучшие торренты? Добавь свой email!
Добавить

Торрент скачать бесплатно

» » Моя прекрасная леди / My Fair Lady (1964) BDRip [H.264 / 1080p] торрент скачать бесплатно




    Моя прекрасная леди / My Fair Lady (1964) BDRip [H.264 / 1080p] торрент скачать бесплатно

    Опубликовал: Админ | Дата: 17-03-2016, 04:00 | Просмотров: 55

    Производство: Warner Bros. Pictures, США
    Жанр: Мюзикл, Мелодрама
    Режиссер: Джордж Кьюкор

    Актеры
    Одри Хепберн, Рекс Харрисон, Стэнли Холлоуэй, Вилфрид Хайд-Вайт, Глэдис Купер, Джереми Бретт, Теодор Бикел, Мона Уошборн, Изобел Элсом, Джон Холлэнд

    Описание

    Знаменитый профессор Генри Хиггинс заключает пари со своим другом, что сможет обучить безграмотную замарашку, уличную цветочницу Элизу правильной речи и высокосветским манерам и выдать ее за настоящую леди. Искрометный юмор, забавные ситуации, Золушка на глазах у зрителей превращается в принцессу, а убежденный холостяк — во влюбленного.

    Продолжительность: 02: 53: 01
    Качество видео: BDRip 1080p
    Перевод: Многоголосый закадровый профессиональный/одноголосый закадровый
    Язык субтитров: Русский, Английский, Русский (только песни)
    Вид субтитров: Вшитые отключаемые
    Видео: AVC/H.264, 1920x800, ~9000 Kbps, 23, 976 fps
    Аудио 1: AC3 2.0, 48 kHz, 192 kbps | Многоголосый закадровый, ДТВ
    Аудио 2: AC3 2.0, 48 kHz, 192 kbps | Многоголосый закадровый, НТВ+
    Аудио 3: AC3 2.0, 48 kHz, 192 kbps | Многоголосый закадровый, Премьер-фильм
    Аудио 4: AC3 2.0, 48 kHz, 192 kbps | Одноголосый закадровый, Н.Александрович - Мосфильм
    Аудио 5: AC3 2.0, 48 kHz, 192 kbps | Одноголосый закадровый, неизвестный
    Аудио 6: AC3 5.1, 48 kHz, 448 kbps | Многоголосый закадровый - Ukrainian
    Аудио 7: AC3 2.0, 48 kHz, 192 kbps | Одноголосый закадровый, комментарии - English
    Аудио 8: DTS 5.1, 48 kHz, 1510 kbps | Оригинал - English (Отдельным файлом)
    Код:

    General
    Unique ID : 42824609455575328838060437582867444469 (0x2037B842E4CEFB448ED4BE53B73DB2F5)
    Complete name : My.Fair.Lady.1964.BDRip.1080p.x264.Rus.Eng.Ukr.mkv
    Format : Matroska
    Format version : Version 2
    File size : 12.8 GiB
    Duration : 2h 52mn
    Overall bit rate : 10.6 Mbps
    Encoded date : UTC 2012-01-15 16:20:40
    Writing application : mkvmerge v5.0.1 (\'Es ist Sommer\') built on Oct 10 2011 15:04:05
    Writing library : libebml v1.2.2 + libmatroska v1.3.0
    Video
    ID : 1
    Format : AVC
    Format/Info : Advanced Video Codec
    Format profile :High@L4.1
    Format settings, CABAC : Yes
    Format settings, ReFrames : 5 frames
    Codec ID : V_MPEG4/ISO/AVC
    Duration : 2h 52mn
    Bit rate : 9 000 Kbps
    Width : 1 920 pixels
    Height : 800 pixels
    Display aspect ratio : 2.40:1
    Frame rate : 23.976 fps
    Color space : YUV
    Chroma subsampling : 4:2:0
    Bit depth : 8 bits
    Scan type : Progressive
    Bits/(Pixel*Frame) : 0.244
    Stream size : 10.6 GiB (83%)
    Writing library : x264 core 120
    Encoding settings : cabac=1/ref=5/deblock=1:-3:-3/analyse=0x3:0x133/me=umh/subme=11/psy=0/mixed_ref=1/me_range=48/chroma_me=1/trellis=2/8x8dct=1/cqm=0/deadzone=21, 11/fast_pskip=0/chroma_qp_offset=0/threads=20/sliced_threads=0/nr=0/decimate=0/interlaced=0/bluray_compat=0/constrained_intra=0/bframes=12/b_pyramid=2/b_adapt=2/b_bias=0/direct=3/weightb=1/open_gop=0/weightp=2/keyint=250/keyint_min=23/scenecut=40/intra_refresh=0/rc_lookahead=250/rc=2pass/mbtree=0/bitrate=9000/ratetol=1.0/qcomp=0.80/qpmin=0/qpmax=69/qpstep=4/cplxblur=20.0/qblur=0.5/vbv_maxrate=50000/vbv_bufsize=62500/nal_hrd=none/ip_ratio=1.40/pb_ratio=1.30/aq=2:0.75
    Default : Yes
    Forced : No
    Audio #1
    ID : 2
    Format : AC-3
    Format/Info : Audio Coding 3
    Mode extension : CM (complete main)
    Codec ID : A_AC3
    Duration : 2h 52mn
    Bit rate mode : Constant
    Bit rate : 192 Kbps
    Channel(s) : 2 channels
    Channel positions : Front: L R
    Sampling rate : 48.0 KHz
    Bit depth : 16 bits
    Compression mode : Lossy
    Stream size : 238 MiB (2%)
    Title : MVO [ДТВ]
    Language : Russian
    Default : No
    Forced : No
    Audio #2
    ID : 3
    Format : AC-3
    Format/Info : Audio Coding 3
    Mode extension : CM (complete main)
    Codec ID : A_AC3
    Duration : 2h 52mn
    Bit rate mode : Constant
    Bit rate : 192 Kbps
    Channel(s) : 2 channels
    Channel positions : Front: L R
    Sampling rate : 48.0 KHz
    Bit depth : 16 bits
    Compression mode : Lossy
    Stream size : 238 MiB (2%)
    Title : MVO [НТВ+]
    Language : Russian
    Default : No
    Forced : No
    Audio #3
    ID : 4
    Format : AC-3
    Format/Info : Audio Coding 3
    Mode extension : CM (complete main)
    Codec ID : A_AC3
    Duration : 2h 52mn
    Bit rate mode : Constant
    Bit rate : 192 Kbps
    Channel(s) : 2 channels
    Channel positions : Front: L R
    Sampling rate : 48.0 KHz
    Bit depth : 16 bits
    Compression mode : Lossy
    Stream size : 238 MiB (2%)
    Title : DVO [Премьер-фильм]
    Language : Russian
    Default : Yes
    Forced : No
    Audio #4
    ID : 5
    Format : AC-3
    Format/Info : Audio Coding 3
    Mode extension : CM (complete main)
    Codec ID : A_AC3
    Duration : 2h 52mn
    Bit rate mode : Constant
    Bit rate : 192 Kbps
    Channel(s) : 2 channels
    Channel positions : Front: L R
    Sampling rate : 48.0 KHz
    Bit depth : 16 bits
    Compression mode : Lossy
    Stream size : 238 MiB (2%)
    Title : VO [Александрович]
    Language : Russian
    Default : No
    Forced : No
    Audio #5
    ID : 6
    Format : AC-3
    Format/Info : Audio Coding 3
    Mode extension : CM (complete main)
    Codec ID : A_AC3
    Duration : 2h 52mn
    Bit rate mode : Constant
    Bit rate : 192 Kbps
    Channel(s) : 2 channels
    Channel positions : Front: L R
    Sampling rate : 48.0 KHz
    Bit depth : 16 bits
    Compression mode : Lossy
    Stream size : 238 MiB (2%)
    Title : VO [unknown]
    Language : Russian
    Default : No
    Forced : No
    Audio #6
    ID : 7
    Format : AC-3
    Format/Info : Audio Coding 3
    Mode extension : CM (complete main)
    Codec ID : A_AC3
    Duration : 2h 52mn
    Bit rate mode : Constant
    Bit rate : 448 Kbps
    Channel(s) : 6 channels
    Channel positions : Front: L C R, Side: L R, LFE
    Sampling rate : 48.0 KHz
    Bit depth : 16 bits
    Compression mode : Lossy
    Stream size : 554 MiB (4%)
    Title : Ukrainian
    Language : Ukrainian
    Default : No
    Forced : No
    Audio #7
    ID : 8
    Format : AC-3
    Format/Info : Audio Coding 3
    Mode extension : CM (complete main)
    Codec ID : A_AC3
    Duration : 2h 52mn
    Bit rate mode : Constant
    Bit rate : 192 Kbps
    Channel(s) : 2 channels
    Channel positions : Front: L R
    Sampling rate : 48.0 KHz
    Bit depth : 16 bits
    Compression mode : Lossy
    Stream size : 238 MiB (2%)
    Title : Comments
    Language : English
    Default : No
    Forced : No
    Text #1
    ID : 9
    Format : UTF-8
    Codec ID : S_TEXT/UTF8
    Codec ID/Info : UTF-8 Plain Text
    Title : Russian [Только песни]
    Language : Russian
    Default : Yes
    Forced : No
    Text #2
    ID : 10
    Format : UTF-8
    Codec ID : S_TEXT/UTF8
    Codec ID/Info : UTF-8 Plain Text
    Title : Russian
    Language : Russian
    Default : No
    Forced : No
    Text #3
    ID : 11
    Format : UTF-8
    Codec ID : S_TEXT/UTF8
    Codec ID/Info : UTF-8 Plain Text
    Title : English
    Language : English
    Default : No
    Forced : No


    Скриншоты для ознакомления




    Онлайн видео Моя прекрасная леди



    Моя прекрасная леди/My Fair Lady (1964) BDRip [H.264/1080p]
    загрузка...
    Рейтинг →
     (голосов: 1, оценка 4/5, голосовать можно 1 раз )

    Другие торренты по теме:

  • Моя прекрасная леди / My Fair Lady (1964) BDRip [H.264]


    • Комментарии (0):

      Информация

      Информация

        Посетители, находящиеся в группе Гости, не могут оставлять комментарии в данной новости.

        ↓ Меню




        ↓ Опрос

        Вы добавили сайт в закладки?
        Да
        Нет


        Top 10 за месяц (Фильмы)