.
Авторизация | Регистрация
Хочешь лучшие торренты? Добавь свой email!
Добавить

Торрент скачать бесплатно

» » Спасение (2015) SATRip [H.264] торрент скачать бесплатно




    Спасение (2015) SATRip [H.264] торрент скачать бесплатно

    Опубликовал: Админ | Дата: 16-03-2016, 04:01 | Просмотров: 74

    Производство: Россия, к/с им. М. Горького, Валдай-фильм, BaltMedia
    Жанр: Драма
    Режиссер: Иван Вырыпаев

    Актеры
    Полина Гришина, Каролина Грушка, Казимир Лиске, Диана Замойская, Иван Вырыпаев...

    Описание

    Молодую католическую монахиню сестру Анну из Польши отправляют служить в миссию католического прихода высоко в гималайских горах. Сестре Анне 25 лет, и половину жизни она провела в монастыре. И вот, первый раз в жизни она выезжает в другую страну, и не просто в какую-то страну, а в аутентичный край Ладакх, который является частью тибетской Индии. Приехав туда, сестра Анна оказывается в совершенно незнакомом ей мире. Она сталкивается с совсем иной культурой, с другими энергиями и абсолютно другой религией. Загадочный мир Тибета и случайные встречи в пути приносят сложные мысли и вопросы.

    Релиз от: fomatash
    Продолжительность: 01: 30: 19
    Качество видео: SATRip
    Видео: AVC/H.264, 704x432@768x432, ~597 kbps
    Аудио: MP2, 2 ch, 128 kbps, CBR
    Код:

    Общее
    Уникальный идентификатор : 182275161738429668965286826861945153595 (0x8920EB51699C7245BDEDC245A4BBE83B)
    Полное имя : D:-TTTСпасение-Sat-MG.mkv
    Формат : Matroska
    Версия формата : Version 4/Version 2
    Размер файла : 469 Мбайт
    Продолжительность : 1 ч. Время пошло, сказал кто то из толпы, к чему не понятно. 30 м.
    Общий поток : 726 Кбит/сек
    Дата кодирования : UTC 2016-03-14 15:55:51
    Программа кодирования : mkvmerge v8.9.0 (\'Father Daughter\') 64bit
    Библиотека кодирования : libebml v1.3.3 + libmatroska v1.4.4
    Видео
    Идентификатор : 1
    Формат : AVC
    Формат/Информация : Advanced Video Codec
    Профиль формата :High@L4.1
    Параметр CABAC формата : Да
    Параметр ReFrames формата : 12 кадров
    Идентификатор кодека : V_MPEG4/ISO/AVC
    Продолжительность : 1 ч. 30 м.
    Битрейт : 597 Кбит/сек
    Ширина : 704 пикселя
    Высота : 432 пикселя
    Соотношение сторон : 16:9
    Режим частоты кадров : Постоянный
    Частота кадров : 25, 000 кадров/сек
    Цветовое пространство : YUV
    Субдискретизация насыщенности : 4:2:0
    Битовая глубина : 8 бит
    Тип развёртки : Прогрессивная
    Бит/(Пиксели*Кадры) : 0.079
    Размер потока : 385 Мбайт (82%)
    Заголовок : FomaTash for nnm-club.me
    Библиотека кодирования : x264 core 146 r2538 121396c
    Настройки программы : cabac=1/ref=12/deblock=1:-1:-1/analyse=0x3:0x133/me=umh/subme=9/psy=1/psy_rd=1.00:0.15/mixed_ref=1/me_range=32/chroma_me=1/trellis=2/8x8dct=1/cqm=0/deadzone=21, 11/fast_pskip=1/chroma_qp_offset=-3/threads=6/lookahead_threads=1/sliced_threads=0/nr=0/decimate=0/interlaced=0/bluray_compat=0/constrained_intra=0/bframes=6/b_pyramid=2/b_adapt=2/b_bias=0/direct=3/weightb=1/open_gop=0/weightp=2/keyint=240/keyint_min=23/scenecut=40/intra_refresh=0/rc_lookahead=40/rc=2pass/mbtree=0/bitrate=597/ratetol=1.0/qcomp=0.60/qpmin=10/qpmax=51/qpstep=4/cplxblur=20.0/qblur=0.5/vbv_maxrate=50000/vbv_bufsize=62500/nal_hrd=none/filler=0/ip_ratio=1.40/pb_ratio=1.30/aq=1:1.00
    Язык : Russian
    Default : Да
    Forced : Нет
    Аудио
    Идентификатор : 2
    Формат : MPEG Audio
    Версия формата : Version 1
    Профиль формата : Layer 2
    Идентификатор кодека : A_MPEG/L2
    Идентификатор кодека/Подсказка : MP2
    Продолжительность : 1 ч. 30 м.
    Вид битрейта : Постоянный
    Битрейт : 128 Кбит/сек
    Каналы : 2 канала
    Частота : 48, 0 КГц
    Частота кадров : 41, 667 кадра/сек (1152 spf)
    Метод сжатия : С потерями
    Размер потока : 82, 7 Мбайт (18%)
    Заголовок : MP2-2 канала
    Язык : Russian
    Default : Да
    Forced : Нет


    Скриншоты для ознакомления




    Спасение (2015) SATRip [H.264]
    загрузка...
    Рейтинг →
     (голосов: 1, оценка 5/5, голосовать можно 1 раз )

    Другие торренты по теме:

  • Спасение. Предисловие к фильму (2016) SATRip [H.264]
  • Ложь во спасение (2016) SATRip (серии 1-4 из 4)
  • Ложь во спасение (2015) SATRip [H.264] (1-4 серии из 4)
  • Ложь во спасение (2015) SATRip (Театр "Ленком")


    • Комментарии (0):

      Информация

      Информация

        Посетители, находящиеся в группе Гости, не могут оставлять комментарии в данной новости.

        ↓ Меню




        ↓ Опрос

        Вы добавили сайт в закладки?
        Да
        Нет


        Top 10 за месяц (Фильмы)