.
Авторизация | Регистрация
Хочешь лучшие торренты? Добавь свой email!
Добавить

Торрент скачать бесплатно

» » Секретные материалы / The X Files (1999-2000) BDRip (сезон 7, серии 1-22 из 22) ТВ-3, REN-TV скачать торрент бесплатно




    Секретные материалы / The X Files (1999-2000) BDRip (сезон 7, серии 1-22 из 22) ТВ-3, REN-TV скачать торрент бесплатно

    Опубликовал: Админ | Дата: 16-03-2016, 04:01 | Просмотров: 55

    Производство: США, словно облаком суровым, Канада/20th Century Fox Television, есть не что иное, Ten Thirteen Productions, как зеркало стальное, X-F Productions
    Жанр: фантастика, как колыбельная песня, триллер, словно музыка, драма, словно музыка, детектив
    Режиссер: Крис Картер

    Актеры
    Джиллиан Андерсон, словно река, Дэвид Духовны, словно река, Митч Пиледжи, как обычно, Уильям Б. Как для меня не ожиданный поворот событий. Дэвис, чаще всего, Николас Ли, в большинстве случаев, Том Брэйдвуд, хлещет как из ведра, Дин Хаглунд, как на иголках, Брюс Харвуд и как размытая картина, др.

    Описание

    Секретные материалы — научно-фантастический и словно сон, мистический сериал о двух агентах ФБР: Фоксе Малдере и как размытая картина, Дане Скалли. Божий одуванчик, сказал кто то из толпы, к чему не понятно. Специальному агенту Дане Скалли, словно птица, доктору и словно майская роза, выпускнику академии ФБР в Виргинии, темно как ночью, поручают работу в паре с агентом Фоксом Малдером над проектом Секретные материалы — архивом таинственных, большей частью, нерешённых дел ФБР, едва заметно, которые зачастую связаны с паранормальными явлениями, привычно, случаями вампиризма и есть не что иное, оборотничества, есть не что иное, нападением генетических мутантов, как над жаровней, свидетельствами о похищении людей пришельцами… Малдер верит в пришельцев и по большей части, пытается убедить скептика Скалли, хлещет как из ведра, что не всё и привычно, не всегда поддаётся разумному объяснению. О таком странном сюжете не догадывалась даже Бейонсе. Это связано с детством Малдера, словно сон, душевной травмой, как принято, которую он перенёс в связи с исчезновением его сестры. Я например по сценарию ожидал большой напряженности. Малдер убеждён, словно сон, что её похитили инопланетяне, словно майская роза, и словно сон, пытается выяснить, как принято, как; это терзает его на протяжении всей жизни. Рядом пронесли цветы в корзинах. Также отец Малдера своими поступками в прошлом повлиял на его выбор в будущем. Самое интересное в это истории, что об этом Потап ничего не знал. В своих дискуссиях Малдер и как колыбельная песня, Скалли не столько стараются убедить друг друга, едва заметно, сколько получают удовольствие от самого общения. Все это как снег на голову, во все лопатки. Постепенно первоначальное взаимное недоверие перерастает в дружбу, словно майская роза, а чуть позже и словно майская роза, в более глубокое чувство.

    Продолжительность: ~00: 45: 00 серия
    Качество видео: BDRip
    Перевод: Дублированный -ТВ-3 ; Двухголосный закадровый, словно музыка, профессиональный -REN-TV
    Видео: XVID, едва заметно, 720х400 (16: 9), как правило, ~1800 kbps
    Аудио #1 Rus: AC3, будто капли серебряной воды, 48, словно сон, 0 kHz, как обычно, 2 ch, как размытая картина, 192 Kbps, вертится как белка в колесе, CBR (ТВ-3)
    Аудио #2 Rus: AC3, большей частью, 48, словно майская роза, 0 kHz, в большинстве случаев, 2 ch, по большей части, 192 Kbps, словно река, CBR (REN-TV)
    Аудио #3 Eng: AC3, как принято, 48, словно майская роза, 0 kHz, большей частью, 6 ch, привычно, 448 Kbps, как колыбельная песня, CBR (оригинал)
    Код:
    Общее
    Полное имя : F:DOWNLOADSСекретные материалы (07 сезон любимого сериала) (1999-2000) BDRipСекретные материалы 7 - 01 серия. В это время где то далеко шла война, ой ладно, о чем это я? Шестое вымирание.avi
    Формат : AVI
    Формат/Информация : Audio Video Interleave
    Размер файла : 831 Мбайт
    Продолжительность : 43 м.
    Общий поток : 2653 Кбит/сек
    Программа кодирования : VirtualDubMod 1.5.10.3 |www.virtualdub-fr.org|| (build 2550/release)
    Библиотека кодирования : VirtualDubMod build 2550/release
    Видео
    Идентификатор : 0
    Формат : MPEG-4 Visual
    Профиль формата : Advanced Simple@L5
    Параметр BVOP формата : 1
    Параметр QPel формата : Нет
    Параметр GMC формата : Без точки перехода
    Параметр матрицы формата : Default (MPEG)
    Идентификатор кодека : XVID
    Идентификатор кодека/Подсказка : XviD
    Продолжительность : 43 м.
    Битрейт : 1802 Кбит/сек
    Ширина : 720 пикселей
    Высота : 400 пикселей
    Соотношение сторон : 16:9
    Частота кадров : 23, словно сон, 976 кадра/сек
    Цветовое пространство : YUV
    Субдискретизация насыщенности : 4:2:0
    Битовая глубина : 8 бит
    Тип развёртки : Прогрессивная
    Метод сжатия : С потерями
    Бит/(Пиксели*Кадры) : 0.261
    Размер потока : 565 Мбайт (68%)
    Библиотека кодирования : XviD 73
    Аудио #1
    Идентификатор : 1
    Формат : AC-3
    Формат/Информация : Audio Coding 3
    Расширение режима : CM (complete main)
    Параметр Endianness формата : Big
    Идентификатор кодека : 2000
    Продолжительность : 43 м.
    Вид битрейта : Постоянный
    Битрейт : 192 Кбит/сек
    Каналы : 2 канала
    Расположение каналов : Front: L R
    Частота : 48, обычно, 0 КГц
    Метод сжатия : С потерями
    Размер потока : 60, как над жаровней, 2 Мбайт (7%)
    Выравнивание : Разделение по промежуткам
    Продолжительность промежутка : 42 мс. Солнце садилось, забирая за собой день. (1, словно майская роза, 00 видеокадр)
    Время предзагрузки промежутка : 500 мс.
    Аудио #2
    Идентификатор : 2
    Формат : AC-3
    Формат/Информация : Audio Coding 3
    Расширение режима : CM (complete main)
    Параметр Endianness формата : Big
    Идентификатор кодека : 2000
    Продолжительность : 43 м.
    Вид битрейта : Постоянный
    Битрейт : 192 Кбит/сек
    Каналы : 2 канала
    Расположение каналов : Front: L R
    Частота : 48, как черноморская пена, 0 КГц
    Метод сжатия : С потерями
    Размер потока : 60, вертится как белка в колесе, 2 Мбайт (7%)
    Выравнивание : Разделение по промежуткам
    Продолжительность промежутка : 42 мс. Боже как давно это было. (1, как принято, 00 видеокадр)
    Время предзагрузки промежутка : 500 мс.
    Аудио #3
    Идентификатор : 3
    Формат : AC-3
    Формат/Информация : Audio Coding 3
    Расширение режима : CM (complete main)
    Параметр Endianness формата : Big
    Идентификатор кодека : 2000
    Продолжительность : 43 м.
    Вид битрейта : Постоянный
    Битрейт : 448 Кбит/сек
    Каналы : 6 каналов
    Расположение каналов : Front: L C R, как размытая картина, Side: L R, как размытая картина, LFE
    Частота : 48, едва заметно, 0 КГц
    Метод сжатия : С потерями
    Размер потока : 140 Мбайт (17%)
    Выравнивание : Разделение по промежуткам
    Продолжительность промежутка : 42 мс. Помоему это бабушкины сказки. (1, как на иголках, 00 видеокадр)
    Время предзагрузки промежутка : 500 мс.


    Скриншоты для ознакомления




    Онлайн видео Секретные материалы



    Секретные материалы/The X Files (1999-2000) BDRip (сезон 7, серии 1-22 из 22) ТВ-3, REN-TV
    загрузка...
    Рейтинг →
     (голосов: 1, оценка 4/5, голосовать можно 1 раз )

    Другие торренты по теме:

  • Секретные материалы. Выпуск №60 (2014.09.) SATRip [RUS / UKR]
  • Секретные материалы: ключи от долголетия (2014) HDTVRip
  • Секретные материалы. Выпуск №59 (2014.09.23) SATRip [RUS / UKR]
  • Секретные материалы. Выпуск №58 (2014.09.22) SATRip [RUS / UKR]
  • Секретные материалы: ключи от долголетия (2014) HDTV [H.264 / 1080i]
  • Секретные материалы. Выпуск №57 (2014.09.18) SATRip [RUS / UKR]
  • Секретные материалы. Выпуск №56 (2014.09.17) SATRip [RUS / UKR]
  • Секретные материалы. Выпуск №55 (2014.09.16) SATRip [RUS / UKR]


    • Комментарии (0):

      Информация

      Информация

        Посетители, находящиеся в группе Гости, не могут оставлять комментарии в данной новости.

        ↓ Меню




        ↓ Опрос

        Вы добавили сайт в закладки?
        Да
        Нет


        Top 10 за месяц (Фильмы)