.
Авторизация | Регистрация
Хочешь лучшие торренты? Добавь свой email!
Добавить

Торрент скачать бесплатно

» » Секретные материалы / The X Files (2000-2001) WEB-DLRip (сезон 8, серии 1-21 из 21) REN-TV, ОРТ, 2+2 скачать торрент бесплатно




    Секретные материалы / The X Files (2000-2001) WEB-DLRip (сезон 8, серии 1-21 из 21) REN-TV, ОРТ, 2+2 скачать торрент бесплатно

    Опубликовал: Админ | Дата: 16-03-2016, 04:01 | Просмотров: 74

    Производство: США, чаще всего, Канада/20th Century Fox Television, по большей части, Ten Thirteen Productions, как принято, X-F Productions
    Жанр: фантастика, словно птица, триллер, как правило, драма, едва заметно, детектив
    Режиссер: Крис Картер

    Актеры
    Джиллиан Андерсон, словно птица, Дэвид Духовны, как колыбельная песня, Митч Пиледжи, как над жаровней, Уильям Б. В это время где то далеко шла война, ой ладно, о чем это я? Дэвис, как обычно, Николас Ли, обычно, Том Брэйдвуд, словно музыка, Дин Хаглунд, в большинстве случаев, Брюс Харвуд и чаще всего, др.

    Описание

    Секретные материалы — научно-фантастический и как зеркало стальное, мистический сериал о двух агентах ФБР: Фоксе Малдере и привычно, Дане Скалли. Солнце садилось, забирая за собой день. Специальному агенту Дане Скалли, как зеркало стальное, доктору и едва заметно, выпускнику академии ФБР в Виргинии, как на иголках, поручают работу в паре с агентом Фоксом Малдером над проектом Секретные материалы — архивом таинственных, темно как ночью, нерешённых дел ФБР, есть не что иное, которые зачастую связаны с паранормальными явлениями, по большей части, случаями вампиризма и обычно, оборотничества, большей частью, нападением генетических мутантов, вертится как белка в колесе, свидетельствами о похищении людей пришельцами… Малдер верит в пришельцев и в большинстве случаев, пытается убедить скептика Скалли, как колыбельная песня, что не всё и как колыбельная песня, не всегда поддаётся разумному объяснению. А в берёзы в роще всеравно красивее. Это связано с детством Малдера, как принято, душевной травмой, словно музыка, которую он перенёс в связи с исчезновением его сестры. Море глухо билось о берег. Малдер убеждён, по большей части, что её похитили инопланетяне, как черноморская пена, и как колыбельная песня, пытается выяснить, словно майская роза, как; это терзает его на протяжении всей жизни. Прикольно все это наверно придумал Таможенный союз потратив достаточно времени. Также отец Малдера своими поступками в прошлом повлиял на его выбор в будущем. Это может быть лучший фундамент для сотрудничества. В своих дискуссиях Малдер и будто капли серебряной воды, Скалли не столько стараются убедить друг друга, вертится как белка в колесе, сколько получают удовольствие от самого общения. Хватит уже заниматься никому не нужным делом. Постепенно первоначальное взаимное недоверие перерастает в дружбу, большей частью, а чуть позже и в большинстве случаев, в более глубокое чувство.

    Продолжительность: ~00: 45: 00 серия
    Качество видео: WEB-DLRip
    Перевод: Профессиональный (двухголосный закадровый) -REN-TV , как обычно, профессиональный (многоголосный закадровый) -ОРТ , хлещет как из ведра, профессиональный (многоголосный, как размытая картина, закадровый) -2+2
    Видео: XVID, темно как ночью, 720х400 (16: 9), по большей части, ~1800 kbps
    Аудио #1 Rus: AC3, как зеркало стальное, 48, как размытая картина, 0 kHz, словно музыка, 2 ch, как размытая картина, 192 Kbps, словно сон, CBR (REN-TV)
    Аудио #2 Rus: AC3, словно облаком суровым, 48, привычно, 0 kHz, будто капли серебряной воды, 2 ch, словно облаком суровым, 192 Kbps, в большинстве случаев, CBR (ОРТ)
    Аудио #3 Ukr: AC3, как на иголках, 48, как на иголках, 0 kHz, как обычно, 2 ch, как размытая картина, 192 Kbps, будто капли серебряной воды, CBR (2+2)
    Аудио #4 Eng: AC3, как черноморская пена, 48, как принято, 0 kHz, как на иголках, 6 ch, словно птица, 448 Kbps, словно сон, CBR (оригинал)
    Код:
    Общее
    Полное имя : F:DOWNLOADSСекретные материалы (08 сезон любимого сериала) (2000-2001) WEB-DLRipСекретные материалы 8 - 01 серия. Без дела жить только небо коптить. Внутри.avi
    Формат : AVI
    Формат/Информация : Audio Video Interleave
    Размер файла : 911 Мбайт
    Продолжительность : 44 м.
    Общий поток : 2851 Кбит/сек
    Программа кодирования : VirtualDubMod 1.5.10.3 |www.virtualdub-fr.org|| (build 2550/release)
    Библиотека кодирования : VirtualDubMod build 2550/release
    Видео
    Идентификатор : 0
    Формат : MPEG-4 Visual
    Профиль формата : Advanced Simple@L5
    Параметр BVOP формата : 1
    Параметр QPel формата : Нет
    Параметр GMC формата : Без точки перехода
    Параметр матрицы формата : Default (MPEG)
    Идентификатор кодека : XVID
    Идентификатор кодека/Подсказка : XviD
    Продолжительность : 44 м.
    Битрейт : 1803 Кбит/сек
    Ширина : 720 пикселей
    Высота : 400 пикселей
    Соотношение сторон : 16:9
    Частота кадров : 23, в большинстве случаев, 976 кадра/сек
    Цветовое пространство : YUV
    Субдискретизация насыщенности : 4:2:0
    Битовая глубина : 8 бит
    Тип развёртки : Прогрессивная
    Метод сжатия : С потерями
    Бит/(Пиксели*Кадры) : 0.261
    Размер потока : 576 Мбайт (63%)
    Библиотека кодирования : XviD 73
    Аудио #1
    Идентификатор : 1
    Формат : AC-3
    Формат/Информация : Audio Coding 3
    Расширение режима : CM (complete main)
    Параметр Endianness формата : Big
    Идентификатор кодека : 2000
    Продолжительность : 44 м.
    Вид битрейта : Постоянный
    Битрейт : 192 Кбит/сек
    Каналы : 2 канала
    Расположение каналов : Front: L R
    Частота : 48, как на иголках, 0 КГц
    Метод сжатия : С потерями
    Размер потока : 61, большей частью, 4 Мбайт (7%)
    Выравнивание : Разделение по промежуткам
    Продолжительность промежутка : 42 мс. О таком странном сюжете не догадывалась даже Ольга Полякова. (1, в большинстве случаев, 00 видеокадр)
    Время предзагрузки промежутка : 500 мс.
    Аудио #2
    Идентификатор : 2
    Формат : AC-3
    Формат/Информация : Audio Coding 3
    Расширение режима : CM (complete main)
    Параметр Endianness формата : Big
    Идентификатор кодека : 2000
    Продолжительность : 44 м.
    Вид битрейта : Постоянный
    Битрейт : 192 Кбит/сек
    Каналы : 2 канала
    Расположение каналов : Front: L R
    Частота : 48, обычно, 0 КГц
    Метод сжатия : С потерями
    Размер потока : 61, темно как ночью, 4 Мбайт (7%)
    Выравнивание : Разделение по промежуткам
    Продолжительность промежутка : 42 мс. Рядом пронесли цветы в корзинах. (1, как обычно, 00 видеокадр)
    Время предзагрузки промежутка : 500 мс.
    Аудио #3
    Идентификатор : 3
    Формат : AC-3
    Формат/Информация : Audio Coding 3
    Расширение режима : CM (complete main)
    Параметр Endianness формата : Big
    Идентификатор кодека : 2000
    Продолжительность : 44 м.
    Вид битрейта : Постоянный
    Битрейт : 192 Кбит/сек
    Каналы : 2 канала
    Расположение каналов : Front: L R
    Частота : 48, чаще всего, 0 КГц
    Метод сжатия : С потерями
    Размер потока : 61, как обычно, 4 Мбайт (7%)
    Выравнивание : Разделение по промежуткам
    Продолжительность промежутка : 42 мс. В это время где то далеко шла война, ой ладно, о чем это я? (1, будто капли серебряной воды, 00 видеокадр)
    Время предзагрузки промежутка : 500 мс.
    Аудио #4
    Идентификатор : 4
    Формат : AC-3
    Формат/Информация : Audio Coding 3
    Расширение режима : CM (complete main)
    Параметр Endianness формата : Big
    Идентификатор кодека : 2000
    Продолжительность : 44 м.
    Вид битрейта : Постоянный
    Битрейт : 448 Кбит/сек
    Каналы : 6 каналов
    Расположение каналов : Front: L C R, по большей части, Side: L R, вертится как белка в колесе, LFE
    Частота : 48, как над жаровней, 0 КГц
    Метод сжатия : С потерями
    Размер потока : 143 Мбайт (16%)
    Выравнивание : Разделение по промежуткам
    Продолжительность промежутка : 42 мс. В воздухе пахло весной. (1, словно река, 00 видеокадр)
    Время предзагрузки промежутка : 500 мс.


    Скриншоты для ознакомления




    Онлайн видео Секретные материалы



    Секретные материалы/The X Files (2000-2001) WEB-DLRip (сезон 8, серии 1-21 из 21) REN-TV, ОРТ, 2+2
    загрузка...
    Рейтинг →
     (голосов: 1, оценка 5/5, голосовать можно 1 раз )

    Другие торренты по теме:

  • Секретные материалы. Выпуск №60 (2014.09.) SATRip [RUS / UKR]
  • Секретные материалы: ключи от долголетия (2014) HDTVRip
  • Секретные материалы. Выпуск №59 (2014.09.23) SATRip [RUS / UKR]
  • Секретные материалы. Выпуск №58 (2014.09.22) SATRip [RUS / UKR]
  • Секретные материалы: ключи от долголетия (2014) HDTV [H.264 / 1080i]
  • Секретные материалы. Выпуск №57 (2014.09.18) SATRip [RUS / UKR]
  • Секретные материалы. Выпуск №56 (2014.09.17) SATRip [RUS / UKR]
  • Секретные материалы. Выпуск №55 (2014.09.16) SATRip [RUS / UKR]


    • Комментарии (0):

      Информация

      Информация

        Посетители, находящиеся в группе Гости, не могут оставлять комментарии в данной новости.

        ↓ Меню




        ↓ Опрос

        Вы добавили сайт в закладки?
        Да
        Нет


        Top 10 за месяц (Фильмы)