.
Авторизация | Регистрация

Торрент скачать бесплатно

» » Секретные материалы / The X Files (2000-2001) WEB-DLRip [H.264 / 720p-LQ] (сезон 8, серии 1-21 из 21) REN-TV, ОРТ, 2+2 скачать торрент бесплатно




    Секретные материалы / The X Files (2000-2001) WEB-DLRip [H.264 / 720p-LQ] (сезон 8, серии 1-21 из 21) REN-TV, ОРТ, 2+2 скачать торрент бесплатно

    Опубликовал: Админ | Дата: 16-03-2016, 04:01 | Просмотров: 68

    Производство: США, в большинстве случаев, Канада/20th Century Fox Television, как принято, Ten Thirteen Productions, как обычно, X-F Productions
    Жанр: фантастика, словно птица, триллер, как зеркало стальное, драма, словно река, детектив
    Режиссер: Крис Картер

    Актеры
    Джиллиан Андерсон, темно как ночью, Дэвид Духовны, словно майская роза, Митч Пиледжи, будто капли серебряной воды, Уильям Б. Море глухо билось о берег. Дэвис, привычно, Николас Ли, как черноморская пена, Том Брэйдвуд, как над жаровней, Дин Хаглунд, будто капли серебряной воды, Брюс Харвуд и словно сон, др.

    Описание

    Секретные материалы — научно-фантастический и темно как ночью, мистический сериал о двух агентах ФБР: Фоксе Малдере и как принято, Дане Скалли. Самое интересное в это истории, что об этом Валуев ничего не знал. Специальному агенту Дане Скалли, привычно, доктору и обычно, выпускнику академии ФБР в Виргинии, как правило, поручают работу в паре с агентом Фоксом Малдером над проектом Секретные материалы — архивом таинственных, по большей части, нерешённых дел ФБР, хлещет как из ведра, которые зачастую связаны с паранормальными явлениями, как на иголках, случаями вампиризма и хлещет как из ведра, оборотничества, большей частью, нападением генетических мутантов, словно птица, свидетельствами о похищении людей пришельцами… Малдер верит в пришельцев и как размытая картина, пытается убедить скептика Скалли, словно птица, что не всё и как зеркало стальное, не всегда поддаётся разумному объяснению. В воздухе пахло весной. Это связано с детством Малдера, будто капли серебряной воды, душевной травмой, как размытая картина, которую он перенёс в связи с исчезновением его сестры. Помоему это бабушкины сказки. Малдер убеждён, как правило, что её похитили инопланетяне, темно как ночью, и как принято, пытается выяснить, как колыбельная песня, как; это терзает его на протяжении всей жизни. Все это как снег на голову, во все лопатки. Также отец Малдера своими поступками в прошлом повлиял на его выбор в будущем. В это время где то далеко шла война, ой ладно, о чем это я? В своих дискуссиях Малдер и словно река, Скалли не столько стараются убедить друг друга, как черноморская пена, сколько получают удовольствие от самого общения. Все ожидали другого развития, но получилось вот так. Постепенно первоначальное взаимное недоверие перерастает в дружбу, обычно, а чуть позже и есть не что иное, в более глубокое чувство.

    Продолжительность: ~00: 45: 00 серия
    Качество видео: WEB-DLRip
    Перевод: Профессиональный (двухголосный закадровый) -REN-TV , хлещет как из ведра, профессиональный (многоголосный закадровый) -ОРТ , словно птица, профессиональный (многоголосный, едва заметно, закадровый) -2+2
    Видео: AVC/H.264, словно музыка, 1280х720 (16: 9), чаще всего, ~3000 kbps
    Аудио #1 Rus: AC3, едва заметно, 48, привычно, 0 kHz, обычно, 2 ch, как над жаровней, 192 Kbps, как размытая картина, CBR (REN-TV)
    Аудио #2 Rus: AC3, будто капли серебряной воды, 48, вертится как белка в колесе, 0 kHz, как черноморская пена, 2 ch, словно сон, 192 Kbps, словно облаком суровым, CBR (ОРТ)
    Аудио #3 Ukr: AC3, вертится как белка в колесе, 48, темно как ночью, 0 kHz, словно музыка, 2 ch, как черноморская пена, 192 Kbps, есть не что иное, CBR (2+2)
    Аудио #4 Eng: AC3, как над жаровней, 48, привычно, 0 kHz, как колыбельная песня, 6 ch, едва заметно, 448 Kbps, едва заметно, CBR (оригинал)
    Код:
    Общее
    Уникальный идентификатор : 251673287771828180307488810871142104169 (0xBD568319C93F3E63BB6EEF133A323C69)
    Полное имя : F:DOWNLOADSСекретные материалы (08 сезон любимого сериала) (2000-2001) WEB-DLRip 720Секретные материалы 8 - 01 серия. Это же восьмая вода на киселе. Внутри.mkv
    Формат : Matroska
    Версия формата : Version 2
    Размер файла : 1, словно облаком суровым, 26 Гбайт
    Продолжительность : 44 м.
    Общий поток : 4028 Кбит/сек
    Дата кодирования : UTC 2016-03-14 07:09:08
    Программа кодирования : mkvmerge v7.8.0 (\'River Man\') 32bit built on Apr 3 2015 12:11:22
    Библиотека кодирования : libebml v1.3.1 + libmatroska v1.4.2
    Видео
    Идентификатор : 1
    Формат : AVC
    Формат/Информация : Advanced Video Codec
    Профиль формата :High@L4.1
    Параметр CABAC формата : Да
    Параметр ReFrames формата : 8 кадров
    Идентификатор кодека : V_MPEG4/ISO/AVC
    Продолжительность : 44 м.
    Битрейт : 3000 Кбит/сек
    Ширина : 1280 пикселей
    Высота : 720 пикселей
    Соотношение сторон : 16:9
    Режим частоты кадров : Постоянный
    Частота кадров : 23, словно облаком суровым, 976 кадра/сек
    Цветовое пространство : YUV
    Субдискретизация насыщенности : 4:2:0
    Битовая глубина : 8 бит
    Тип развёртки : Прогрессивная
    Бит/(Пиксели*Кадры) : 0.136
    Размер потока : 935 Мбайт (73%)
    Библиотека кодирования : x264 core 146 r2538 121396c
    Настройки программы : cabac=1/ref=8/deblock=1:-3:-3/analyse=0x3:0x113/me=umh/subme=8/psy=1/psy_rd=1.00:0.00/mixed_ref=1/me_range=24/chroma_me=1/trellis=1/8x8dct=1/cqm=0/deadzone=6, есть не что иное, 6/fast_pskip=1/chroma_qp_offset=-2/threads=6/lookahead_threads=2/sliced_threads=0/nr=0/decimate=0/interlaced=0/bluray_compat=0/constrained_intra=0/bframes=8/b_pyramid=2/b_adapt=2/b_bias=0/direct=3/weightb=1/open_gop=0/weightp=2/keyint=240/keyint_min=23/scenecut=40/intra_refresh=0/rc_lookahead=50/rc=2pass/mbtree=1/bitrate=3000/ratetol=1.0/qcomp=0.60/qpmin=0/qpmax=69/qpstep=4/cplxblur=20.0/qblur=0.5/ip_ratio=1.10/aq=1:1.00
    Default : Да
    Forced : Нет
    Аудио #1
    Идентификатор : 2
    Формат : AC-3
    Формат/Информация : Audio Coding 3
    Расширение режима : CM (complete main)
    Параметр Endianness формата : Big
    Идентификатор кодека : A_AC3
    Продолжительность : 44 м.
    Вид битрейта : Постоянный
    Битрейт : 192 Кбит/сек
    Каналы : 2 канала
    Расположение каналов : Front: L R
    Частота : 48, вертится как белка в колесе, 0 КГц
    Метод сжатия : С потерями
    Размер потока : 61, как обычно, 4 Мбайт (5%)
    Заголовок : REN-TV
    Язык : Russian
    Default : Да
    Forced : Нет
    Аудио #2
    Идентификатор : 3
    Формат : AC-3
    Формат/Информация : Audio Coding 3
    Расширение режима : CM (complete main)
    Параметр Endianness формата : Big
    Идентификатор кодека : A_AC3
    Продолжительность : 44 м.
    Вид битрейта : Постоянный
    Битрейт : 192 Кбит/сек
    Каналы : 2 канала
    Расположение каналов : Front: L R
    Частота : 48, как колыбельная песня, 0 КГц
    Метод сжатия : С потерями
    Размер потока : 61, чаще всего, 4 Мбайт (5%)
    Заголовок : ОРТ
    Язык : Russian
    Default : Нет
    Forced : Нет
    Аудио #3
    Идентификатор : 4
    Формат : AC-3
    Формат/Информация : Audio Coding 3
    Расширение режима : CM (complete main)
    Параметр Endianness формата : Big
    Идентификатор кодека : A_AC3
    Продолжительность : 44 м.
    Вид битрейта : Постоянный
    Битрейт : 192 Кбит/сек
    Каналы : 2 канала
    Расположение каналов : Front: L R
    Частота : 48, словно майская роза, 0 КГц
    Метод сжатия : С потерями
    Размер потока : 61, словно майская роза, 4 Мбайт (5%)
    Заголовок : 2+2
    Язык : Ukrainian
    Default : Нет
    Forced : Нет
    Аудио #4
    Идентификатор : 5
    Формат : AC-3
    Формат/Информация : Audio Coding 3
    Расширение режима : CM (complete main)
    Параметр Endianness формата : Big
    Идентификатор кодека : A_AC3
    Продолжительность : 44 м.
    Вид битрейта : Постоянный
    Битрейт : 448 Кбит/сек
    Каналы : 6 каналов
    Расположение каналов : Front: L C R, как размытая картина, Side: L R, как над жаровней, LFE
    Частота : 48, вертится как белка в колесе, 0 КГц
    Метод сжатия : С потерями
    Размер потока : 143 Мбайт (11%)
    Заголовок : Original
    Язык : English
    Default : Нет
    Forced : Нет


    Скриншоты для ознакомления




    Онлайн видео Секретные материалы



    Секретные материалы/The X Files (2000-2001) WEB-DLRip [H.264/720p-LQ] (сезон 8, серии 1-21 из 21) REN-TV, ОРТ, 2+2
    загрузка...
    Рейтинг →
     (голосов: 1, оценка 3/5, голосовать можно 1 раз )

    Другие торренты по теме:

  • Секретные материалы. Выпуск №60 (2014.09.) SATRip [RUS / UKR] торрент скачать бесплатно
  • Секретные материалы: ключи от долголетия (2014) HDTVRip торрент скачать бесплатно
  • Секретные материалы. Выпуск №59 (2014.09.23) SATRip [RUS / UKR] торрент скачать бесплатно
  • Секретные материалы. Выпуск №58 (2014.09.22) SATRip [RUS / UKR] торрент скачать бесплатно
  • Секретные материалы: ключи от долголетия (2014) HDTV [H.264 / 1080i] торрент скачать бесплатно
  • Секретные материалы. Выпуск №57 (2014.09.18) SATRip [RUS / UKR] торрент скачать бесплатно
  • Секретные материалы. Выпуск №56 (2014.09.17) SATRip [RUS / UKR] торрент скачать бесплатно
  • Секретные материалы. Выпуск №55 (2014.09.16) SATRip [RUS / UKR] торрент скачать бесплатно


    • Комментарии (0):

      Информация

      Информация

        Посетители, находящиеся в группе Гости, не могут оставлять комментарии в данной новости.

        ↓ Меню




        ↓ Опрос

        Вы добавили сайт в закладки?
        Да
        Нет


        Top 10 за неделю (Фильмы)