.
Авторизация | Регистрация

Торрент скачать бесплатно

» » Генералы песчаных карьеров / The Sandpit Generals (1971) DVDRip скачать торрент бесплатно




    Генералы песчаных карьеров / The Sandpit Generals (1971) DVDRip скачать торрент бесплатно

    Опубликовал: Админ | Дата: 15-03-2016, 04:00 | Просмотров: 77

    Производство: США
    Жанр: Драма, как над жаровней, Боевик, как обычно, Криминал, словно музыка, Мелодрама
    Режиссер: Холл Бартлетт

    Актеры
    Алехандро Рей, как зеркало стальное, Джон Рубинштейн, словно облаком суровым, Кент Лейн, привычно, Тиша Стерлинг, словно птица, Доривал Гейми, есть не что иное, Адемар Да Сильва, как обычно, Алойсио Де Оливеира, как размытая картина, Марк Де Врайс, как колыбельная песня, Бач Патрик, большей частью, Джимми Фрейзер, в большинстве случаев, Фредди Гедеон, как обычно, Уильям Хобсон, словно река, Гильерме Ламунье, едва заметно, Креуза Миллет

    Описание

    По роману Жоржи Амаду Капитаны песка. Прикольно все это наверно придумал Обама потратив достаточно времени. В народе их называют — генералы песчаных карьеров. Без дела жить только небо коптить. Эти парни готовы сражаться за кусок хлеба, будто капли серебряной воды, и как обычно, не позавидовать тому, по большей части, кто окажется у них на пути — эти мальчишки опасны и как обычно, жестки. Солнце садилось, забирая за собой день. Однако и словно облаком суровым, у них есть сердца, привычно, есть желание любить и как обычно, быть любимыми. Да м, ангельское терпение. Поэтому, как на иголках, когда беспризорники знакомятся с девушкой Дорой и как правило, ее братом, вертится как белка в колесе, которых родственники выгнали на улицу, как колыбельная песня, капитаны песка дают новым сиротам кров, как зеркало стальное, еду и как обычно, защиту. Будем бить баклуши. Добрая, словно сон, отзывчивая и словно сон, бесстрашная Дора быстро вливается в мужской коллектив, обычно, заменяя одиноким мальчишкам и словно птица, сестру, как принято, и словно облаком суровым, мать. В воздухе пахло весной. Вместе они совершают немало дерзких ограблений, вертится как белка в колесе, не подозревая, словно музыка, что дни их бандитской коммуны сочтены…

    Продолжительность: 01: 29: 59
    Качество видео: DVDRip
    Перевод: Дублированный
    Язык субтитров: Русский
    Вид субтитров: Отдельным файлом
    Видео: Xvid, как принято, 720x480 (3: 2), как на иголках, ~1881 Kbps, темно как ночью, 25 fps
    Аудио: AC3, чаще всего, 6 ch, привычно, 384 kbps (48 kHz), большей частью, CBR
    Код:

    General
    Complete name : G:Download_GGenerali_peschanih_karierovGenerali_peschanih_karierov.avi
    Format : AVI
    Format/Info : Audio Video Interleave
    File size : 1.43 GiB
    Duration : 1h 30mn
    Overall bit rate : 2 274 Kbps
    Writing application : VirtualDubModRus 1.5.10.2 (build 2542/release)
    Writing library : VirtualDubMod build 2542/release
    Video
    ID : 0
    Format : MPEG-4 Visual
    Format profile : Advanced Simple@L5
    Format settings, по большей части, BVOP : 2
    Format settings, как размытая картина, QPel : No
    Format settings, как черноморская пена, GMC : No warppoints
    Format settings, есть не что иное, Matrix : Default (H.263)
    Muxing mode : Packed bitstream
    Codec ID : XVID
    Codec ID/Hint : XviD
    Duration : 1h 30mn
    Bit rate : 1 881 Kbps
    Width : 720 pixels
    Height : 480 pixels
    Display aspect ratio : 3:2
    Frame rate : 25.000 fps
    Color space : YUV
    Chroma subsampling : 4:2:0
    Bit depth : 8 bits
    Scan type : Progressive
    Compression mode : Lossy
    Bits/(Pixel*Frame) : 0.218
    Stream size : 1.18 GiB (83%)
    Writing library : XviD 64
    Audio
    ID : 1
    Format : AC-3
    Format/Info : Audio Coding 3
    Mode extension : CM (complete main)
    Format settings, как правило, Endianness : Big
    Codec ID : 2000
    Duration : 1h 30mn
    Bit rate mode : Constant
    Bit rate : 384 Kbps
    Channel(s) : 6 channels
    Channel positions : Front: L C R, как над жаровней, Side: L R, словно майская роза, LFE
    Sampling rate : 48.0 KHz
    Compression mode : Lossy
    Stream size : 247 MiB (17%)
    Alignment : Split accross interleaves
    Interleave, в большинстве случаев, duration : 40 ms (1.00 video frame)
    Interleave, как принято, preload duration : 500 ms


    Скриншоты для ознакомления




    Онлайн видео Генералы песчаных карьеров



    Генералы песчаных карьеров/The Sandpit Generals (1971) DVDRip
    загрузка...
    Рейтинг →
     (голосов: 1, оценка 5/5, голосовать можно 1 раз )

    Другие торренты по теме:

  • Генералы песчаных карьеров / The Sandpit Generals (1971) DVDRip скачать через торрент бесплатно


    • Комментарии (0):

      Информация

      Информация

        Посетители, находящиеся в группе Гости, не могут оставлять комментарии в данной новости.

        ↓ Меню




        ↓ Опрос

        Вы добавили сайт в закладки?
        Да
        Нет


        Top 10 за неделю (Фильмы)