.
Авторизация | Регистрация
Хочешь лучшие торренты? Добавь свой email!
Добавить

Торрент скачать бесплатно

» » Генералы песчаных карьеров / The Sandpit Generals (1971) DVDRip торрент скачать бесплатно




    Генералы песчаных карьеров / The Sandpit Generals (1971) DVDRip торрент скачать бесплатно

    Опубликовал: Админ | Дата: 15-03-2016, 04:00 | Просмотров: 77

    Производство: США
    Жанр: Драма, Боевик, Криминал, Мелодрама
    Режиссер: Холл Бартлетт

    Актеры
    Алехандро Рей, Джон Рубинштейн, Кент Лейн, Тиша Стерлинг, Доривал Гейми, Адемар Да Сильва, Алойсио Де Оливеира, Марк Де Врайс, Бач Патрик, Джимми Фрейзер, Фредди Гедеон, Уильям Хобсон, Гильерме Ламунье, Креуза Миллет

    Описание

    По роману Жоржи Амаду Капитаны песка. Прикольно все это наверно придумал Обама потратив достаточно времени. В народе их называют — генералы песчаных карьеров. Эти парни готовы сражаться за кусок хлеба, и не позавидовать тому, кто окажется у них на пути — эти мальчишки опасны и жестки. Однако и у них есть сердца, есть желание любить и быть любимыми. Поэтому, когда беспризорники знакомятся с девушкой Дорой и ее братом, которых родственники выгнали на улицу, капитаны песка дают новым сиротам кров, еду и защиту. Добрая, отзывчивая и бесстрашная Дора быстро вливается в мужской коллектив, заменяя одиноким мальчишкам и сестру, и мать. Вместе они совершают немало дерзких ограблений, не подозревая, что дни их бандитской коммуны сочтены…

    Продолжительность: 01: 29: 59
    Качество видео: DVDRip
    Перевод: Дублированный
    Язык субтитров: Русский
    Вид субтитров: Отдельным файлом
    Видео: Xvid, 720x480 (3: 2), ~1881 Kbps, 25 fps
    Аудио: AC3, 6 ch, 384 kbps (48 kHz), CBR
    Код:

    General
    Complete name : G:Download_GGenerali_peschanih_karierovGenerali_peschanih_karierov.avi
    Format : AVI
    Format/Info : Audio Video Interleave
    File size : 1.43 GiB
    Duration : 1h 30mn
    Overall bit rate : 2 274 Kbps
    Writing application : VirtualDubModRus 1.5.10.2 (build 2542/release)
    Writing library : VirtualDubMod build 2542/release
    Video
    ID : 0
    Format : MPEG-4 Visual
    Format profile : Advanced Simple@L5
    Format settings, BVOP : 2
    Format settings, QPel : No
    Format settings, GMC : No warppoints
    Format settings, Matrix : Default (H.263)
    Muxing mode : Packed bitstream
    Codec ID : XVID
    Codec ID/Hint : XviD
    Duration : 1h 30mn
    Bit rate : 1 881 Kbps
    Width : 720 pixels
    Height : 480 pixels
    Display aspect ratio : 3:2
    Frame rate : 25.000 fps
    Color space : YUV
    Chroma subsampling : 4:2:0
    Bit depth : 8 bits
    Scan type : Progressive
    Compression mode : Lossy
    Bits/(Pixel*Frame) : 0.218
    Stream size : 1.18 GiB (83%)
    Writing library : XviD 64
    Audio
    ID : 1
    Format : AC-3
    Format/Info : Audio Coding 3
    Mode extension : CM (complete main)
    Format settings, Endianness : Big
    Codec ID : 2000
    Duration : 1h 30mn
    Bit rate mode : Constant
    Bit rate : 384 Kbps
    Channel(s) : 6 channels
    Channel positions : Front: L C R, Side: L R, LFE
    Sampling rate : 48.0 KHz
    Compression mode : Lossy
    Stream size : 247 MiB (17%)
    Alignment : Split accross interleaves
    Interleave, duration : 40 ms (1.00 video frame)
    Interleave, preload duration : 500 ms


    Скриншоты для ознакомления




    Онлайн видео Генералы песчаных карьеров



    Генералы песчаных карьеров/The Sandpit Generals (1971) DVDRip
    загрузка...
    Рейтинг →
     (голосов: 1, оценка 3/5, голосовать можно 1 раз )

    Другие торренты по теме:

  • Генералы песчаных карьеров / The Sandpit Generals (1971) DVDRip скачать через торрент бесплатно


    • Комментарии (0):

      Информация

      Информация

        Посетители, находящиеся в группе Гости, не могут оставлять комментарии в данной новости.

        ↓ Меню




        ↓ Опрос

        Вы добавили сайт в закладки?
        Да
        Нет


        Top 10 за месяц (Фильмы)