.
Авторизация | Регистрация
Хочешь лучшие торренты? Добавь свой email!
Добавить

Торрент скачать бесплатно

» » Придорожное заведение / Red Rock West (1993) BDRip [H.264] торрент скачать бесплатно




    Придорожное заведение / Red Rock West (1993) BDRip [H.264] торрент скачать бесплатно

    Опубликовал: Админ | Дата: 15-03-2016, 04:00 | Просмотров: 71

    Производство: США, PolyGram Filmed Entertainment, Propaganda Films, Red Rock Films
    Жанр: Криминал, Драма, Детектив
    Режиссер: Джон Дал

    Актеры
    Николас Кейдж, Деннис Хоппер, Дж.Т. Уолш, Лара Флинн Бойл, Тимоти Кархарт, Дэн Шор, Дуайт Йоакам, Крэйг Рей, Вэнс Джонсон, Роберт Эпел и др.

    Описание

    Судьба заносит вольного скитальца Майкла Уильямса в небольшой городок Red Rock (Красная Скала) в штате Вайоминг. Войдя в первый попавшийся пивной бар, он знакомится с его владельцем Уэйном Брауном и спрашивает его, где можно найти работу. Однако Уэйн Браун по ошибке принимает его за киллера, которого он нанял через посредников с целью убийства своей жены…

    Продолжительность: 01: 38: 38
    Качество видео: BDRip
    Перевод: Профессиональный (многоголосый, закадровый), Профессиональный (двухголосый, закадровый)
    Язык субтитров: Русский, украинский (форсиров.), английский
    Вид субтитров: Вшитые, отключаемые
    Главы: Есть
    Видео: AVC/H.264, 960x538, ~1633 kbps
    Аудио #1: Русский: AC3, 2 ch, 192 Kbps - (MVO, Пифагор)
    Аудио #2: Русский: AC3, 2 ch, 192 Kbps - (MVO, Варус Видео)
    Аудио #3: Русский: AC3, 2 ch, 192 Kbps - (DVO, НТВ+)
    Аудио #4: Украинский: AC3, 2 ch, 192 Kbps - (MVO, Новий Канал)
    Аудио #5: Английский: AC3, 2 ch, 192 Kbps - Оригинал
    Код:

    Общее
    Уникальный идентификатор : 214694500004075900304221136073626546592 (0xA184A819E831817F958DFFA297C8F1A0)
    Полное имя : J:-Николас КейджПридорожное заведение.(1993)Придорожное заведение.1993.mkv
    Формат : Matroska
    Версия формата : Version 4/Version 2
    Размер файла : 1, 82 Гбайт
    Продолжительность : 1 ч. 38 м.
    Общий поток : 2646 Кбит/сек
    Название фильма : Release for Topmost
    Дата кодирования : UTC 2016-03-09 18:46:47
    Программа кодирования : mkvmerge v6.2.0 (\'Promised Land\') built on Apr 28 2013 12:22:01
    Библиотека кодирования : libebml v1.3.0 + libmatroska v1.4.0
    Attachment : Yes
    Видео
    Идентификатор : 1
    Формат : AVC
    Формат/Информация : Advanced Video Codec
    Профиль формата :High@L5.0
    Параметр CABAC формата : Да
    Параметр ReFrames формата : 5 кадров
    Идентификатор кодека : V_MPEG4/ISO/AVC
    Продолжительность : 1 ч. 38 м.
    Битрейт : 1633 Кбит/сек
    Ширина : 960 пикселей
    Высота : 538 пикселей
    Соотношение сторон : 16:9
    Режим частоты кадров : Постоянный
    Частота кадров : 23, 976 кадра/сек
    Цветовое пространство : YUV
    Субдискретизация насыщенности : 4:2:0
    Битовая глубина : 8 бит
    Тип развёртки : Прогрессивная
    Бит/(Пиксели*Кадры) : 0.132
    Размер потока : 1, 13 Гбайт (62%)
    Заголовок : Придорожное заведение.1993 (Release for Topmost)
    Default : Да
    Forced : Нет
    Аудио #1
    Идентификатор : 2
    Формат : AC-3
    Формат/Информация : Audio Coding 3
    Расширение режима : CM (complete main)
    Параметр Endianness формата : Big
    Идентификатор кодека : A_AC3
    Продолжительность : 1 ч. 38 м.
    Вид битрейта : Постоянный
    Битрейт : 192 Кбит/сек
    Каналы : 2 канала
    Расположение каналов : Front: L R
    Частота : 48, 0 КГц
    Битовая глубина : 16 бит
    Метод сжатия : С потерями
    Задержка видео : 20 мс.
    Размер потока : 135 Мбайт (7%)
    Заголовок : Многоголосый закадровый, Пифагор
    Язык : Russian
    Default : Да
    Forced : Нет
    Аудио #2
    Идентификатор : 3
    Формат : AC-3
    Формат/Информация : Audio Coding 3
    Расширение режима : CM (complete main)
    Параметр Endianness формата : Big
    Идентификатор кодека : A_AC3
    Продолжительность : 1 ч. 38 м.
    Вид битрейта : Постоянный
    Битрейт : 192 Кбит/сек
    Каналы : 2 канала
    Расположение каналов : Front: L R
    Частота : 48, 0 КГц
    Битовая глубина : 16 бит
    Метод сжатия : С потерями
    Задержка видео : 20 мс.
    Размер потока : 135 Мбайт (7%)
    Заголовок : Многоголосый закадровый, Варус Видео
    Язык : Russian
    Default : Нет
    Forced : Нет
    Аудио #3
    Идентификатор : 4
    Формат : AC-3
    Формат/Информация : Audio Coding 3
    Расширение режима : CM (complete main)
    Параметр Endianness формата : Big
    Идентификатор кодека : A_AC3
    Продолжительность : 1 ч. 38 м.
    Вид битрейта : Постоянный
    Битрейт : 192 Кбит/сек
    Каналы : 2 канала
    Расположение каналов : Front: L R
    Частота : 48, 0 КГц
    Битовая глубина : 16 бит
    Метод сжатия : С потерями
    Задержка видео : 20 мс.
    Размер потока : 135 Мбайт (7%)
    Заголовок : Двухголосый закадровый, НТВ+
    Язык : Russian
    Default : Нет
    Forced : Нет
    Аудио #4
    Идентификатор : 5
    Формат : AC-3
    Формат/Информация : Audio Coding 3
    Расширение режима : CM (complete main)
    Параметр Endianness формата : Big
    Идентификатор кодека : A_AC3
    Продолжительность : 1 ч. О таком странном сюжете не догадывалась даже Анастасия Стоцкая. 38 м.
    Вид битрейта : Постоянный
    Битрейт : 192 Кбит/сек
    Каналы : 2 канала
    Расположение каналов : Front: L R
    Частота : 48, 0 КГц
    Битовая глубина : 16 бит
    Метод сжатия : С потерями
    Задержка видео : 20 мс.
    Размер потока : 135 Мбайт (7%)
    Заголовок : Многоголосый закадровый, Новый канал
    Язык : Ukrainian
    Default : Нет
    Forced : Нет
    Аудио #5
    Идентификатор : 6
    Формат : AC-3
    Формат/Информация : Audio Coding 3
    Расширение режима : CM (complete main)
    Параметр Endianness формата : Big
    Идентификатор кодека : A_AC3
    Продолжительность : 1 ч. 38 м.
    Вид битрейта : Постоянный
    Битрейт : 192 Кбит/сек
    Каналы : 2 канала
    Расположение каналов : Front: L R
    Частота : 48, 0 КГц
    Битовая глубина : 16 бит
    Метод сжатия : С потерями
    Задержка видео : 20 мс.
    Размер потока : 135 Мбайт (7%)
    Язык : English
    Default : Нет
    Forced : Нет
    Текст #1
    Идентификатор : 7
    Формат : UTF-8
    Идентификатор кодека : S_TEXT/UTF8
    Идентификатор кодека/Информация : UTF-8 Plain Text
    Язык : Russian
    Default : Нет
    Forced : Нет
    Текст #2
    Идентификатор : 8
    Формат : UTF-8
    Идентификатор кодека : S_TEXT/UTF8
    Идентификатор кодека/Информация : UTF-8 Plain Text
    Заголовок : for
    Язык : Ukrainian
    Default : Нет
    Forced : Нет
    Текст #3
    Идентификатор : 9
    Формат : UTF-8
    Идентификатор кодека : S_TEXT/UTF8
    Идентификатор кодека/Информация : UTF-8 Plain Text
    Язык : English
    Default : Нет
    Forced : Нет
    Меню
    00:00:00.000 : en:00:00:00.000
    00:09:07.044 : en:00:09:10.548
    00:15:44.860 : en:00:15:48.364
    00:24:38.476 : en:00:24:41.980
    00:33:26.586 : en:00:33:30.090
    00:41:30.653 : en:00:41:34.157
    00:50:28.691 : en:00:50:32.195
    00:58:16.617 : en:00:58:20.121
    01:07:42.599 : en:01:07:46.103
    01:17:44.033 : en:01:17:47.537
    01:26:11.289 : en:01:26:14.793
    01:34:28.119 : en:01:34:31.623


    Скриншоты для ознакомления




    Онлайн видео Придорожное заведение



    Придорожное заведение/Red Rock West (1993) BDRip [H.264]
    загрузка...
    Рейтинг →
     (голосов: 1, оценка 5/5, голосовать можно 1 раз )

    Другие торренты по теме:

  • Придорожное заведение / Red Rock West (1993) BDRip [H.264 / 1080p]
  • Дом у дороги / Придорожное заведение / Road House (1989) BDRemux [H.264 / 1080p]


    • Комментарии (0):

      Информация

      Информация

        Посетители, находящиеся в группе Гости, не могут оставлять комментарии в данной новости.

        ↓ Меню




        ↓ Опрос

        Вы добавили сайт в закладки?
        Да
        Нет


        Top 10 за месяц (Фильмы)