.
Авторизация | Регистрация
Хочешь лучшие торренты? Добавь свой email!
Добавить

Торрент скачать бесплатно

» » Соломон и Шеба / Solomon and Sheba (1959) HDTV [H.264 / 1080i] торрент скачать бесплатно




    Соломон и Шеба / Solomon and Sheba (1959) HDTV [H.264 / 1080i] торрент скачать бесплатно

    Опубликовал: Админ | Дата: 15-03-2016, 04:00 | Просмотров: 45

    Производство: США, Edward Small Productions
    Жанр: Драма, Мелодрама, Военный, Приключения
    Режиссер: Кинг Видор

    Актеры
    Юл Бриннер, Джина Лоллобриджида, Джордж Сэндерс, Мариса Паван, Дэвид Фаррар, Джон Кроуфорд, Финлэй Карри, Гарри Эндрюс, Хосе Ньето, Маручи Фресно

    Описание

    Этот библейский эпос, поставленный режиссером Кингом Вайдером является кинематографическим осмыслением плотских грехов и языческих богопреклонений. Картина, снятая в Испании, запечатлела подвиги незабвенных персонажей. Юл Бриннер олицетворяет здесь сильного и как обычно идеалистического Соломона. А чувственная Джина Лоллобриджида — великолепна в роли величественной и соблазнительной Царицы.

    Продолжительность: 02: 14: 39
    Качество видео: HDTV 1080i
    Перевод: Двуголосый закадровый (НТВ+)
    Видео: AVC/H.264, 1920х1080, ~5544 kbps
    Аудио: MP2, 2 ch, 160 kbps, CBR
    Семпл: Скачать
    Код:

    Общее
    Идентификатор : 16 (0x10)
    Полное имя : Solomon and Sheba_HD.ts
    Формат : MPEG-TS
    Размер файла : 5, 65 Гбайт
    Продолжительность : 2 ч. Бесплатный сыр, сказал кто то из толпы, к чему не понятно. 14 м.
    Режим общего битрейта : Переменный
    Общий поток : 6002 Кбит/сек
    Видео
    Идентификатор : 3581 (0xDFD)
    Идентификатор меню : 1325 (0x52D)
    Формат : AVC
    Формат/Информация : Advanced Video Codec
    Профиль формата :High@L4.0
    Параметр CABAC формата : Да
    Параметр ReFrames формата : 3 кадра
    Параметр GOP формата : M=4, N=32
    Идентификатор кодека : 27
    Продолжительность : 2 ч. 14 м.
    Битрейт : 5544 Кбит/сек
    Ширина : 1920 пикселей
    Высота : 1080 пикселей
    Соотношение сторон : 16:9
    Частота кадров : 25, 000 кадров/сек
    Стандарт вещания : PAL
    Цветовое пространство : YUV
    Субдискретизация насыщенности : 4:2:0
    Битовая глубина : 8 бит
    Тип развёртки : Чересстрочная
    Порядок развёртки : Верхнее поле первое
    Бит/(Пиксели*Кадры) : 0.107
    Размер потока : 5, 21 Гбайт (92%)
    Основные цвета : BT.709
    Характеристики трансфера : BT.709
    Коэффициенты матрицы : BT.709
    Аудио
    Идентификатор : 4325 (0x10E5)
    Идентификатор меню : 1325 (0x52D)
    Формат : MPEG Audio
    Версия формата : Version 1
    Профиль формата : Layer 2
    Идентификатор кодека : 4
    Продолжительность : 2 ч. 14 м.
    Вид битрейта : Постоянный
    Битрейт : 160 Кбит/сек
    Каналы : 2 канала
    Частота : 48, 0 КГц
    Метод сжатия : С потерями
    Задержка видео : 125 мс.
    Размер потока : 154 Мбайт (3%)
    Язык : std
    Язык, дополнительно : Clean effects


    Скриншоты для ознакомления




    Онлайн видео Соломон и Шеба



    Соломон и Шеба/Solomon and Sheba (1959) HDTV [H.264/1080i]
    загрузка...
    Рейтинг →
     (голосов: 1, оценка 5/5, голосовать можно 1 раз )

    Другие торренты по теме:

  • Соломон и Шеба / Solomon and Sheba (1959) HDTVRip [H.264 / 720р-LQ]


    • Комментарии (0):

      Информация

      Информация

        Посетители, находящиеся в группе Гости, не могут оставлять комментарии в данной новости.

        ↓ Меню




        ↓ Опрос

        Вы добавили сайт в закладки?
        Да
        Нет


        Top 10 за месяц (Фильмы)