.
Авторизация | Регистрация
Хочешь лучшие торренты? Добавь свой email!
Добавить

Торрент скачать бесплатно

» » Предварительное расследование (1978) HDTVRip [H.264 / 720p-LQ] торрент скачать бесплатно




    Предварительное расследование (1978) HDTVRip [H.264 / 720p-LQ] торрент скачать бесплатно

    Опубликовал: Админ | Дата: 15-03-2016, 04:00 | Просмотров: 89

    Производство: СССР, Мосфильм
    Жанр: Детектив
    Режиссер: Андрей Разумовский

    Актеры
    Валерий Золотухин, Надежда Репина, Владимир Гостюхин, Юрий Назаров, Виктор Шульгин, Максим Мунзук, Валентин Грачёв, Георгий Юматов, Олег Голубицкий, Иван Савкин, Леонид Чубаров, Алла Мещерякова, Юрий Ильянов...

    Описание

    Продолжение киносериала о дальневосточный милиционере Сережкине, начатого фильмами Хозяин тайги и Пропажа свидетеля. На этот раз уже капитану милиции приходится распутывать дело о похищенным при сплаве лесе. Выступая в роли не только следователя, но и защитника несправедливо обвиненного человека, ему удается распутать хитросплетенное дело.

    Релиз от: fomatash
    Продолжительность: 01: 28: 17
    Качество видео: HDTVRip
    Видео: AVC/H.264, 1280x554, ~2220 kbps
    Аудио: MP2, 2 ch, 224 kbps, CBR
    Код:

    Общее
    Уникальный идентификатор : 217516450916847535130141063629472712338 (0xA3A42505EE7E85B6882E8301359AC692)
    Полное имя : D:-TTTПредварительное расследование-720p-MG-NNM.mkv
    Формат : Matroska
    Версия формата : Version 4/Version 2
    Размер файла : 1, 51 Гбайт
    Продолжительность : 1 ч. 28 м.
    Общий поток : 2446 Кбит/сек
    Дата кодирования : UTC 2016-03-13 01:06:26
    Программа кодирования : mkvmerge v8.9.0 (\'Father Daughter\') 64bit
    Библиотека кодирования : libebml v1.3.3 + libmatroska v1.4.4
    Видео
    Идентификатор : 1
    Формат : AVC
    Формат/Информация : Advanced Video Codec
    Профиль формата :High@L4.1
    Параметр CABAC формата : Да
    Параметр ReFrames формата : 9 кадров
    Идентификатор кодека : V_MPEG4/ISO/AVC
    Продолжительность : 1 ч. Волк в овечьей шкуре, сказал кто то из толпы, к чему не понятно. 28 м.
    Битрейт : 2220 Кбит/сек
    Ширина : 1280 пикселей
    Высота : 554 пикселя
    Соотношение сторон : 2, 35:1
    Режим частоты кадров : Постоянный
    Частота кадров : 25, 000 кадров/сек
    Цветовое пространство : YUV
    Субдискретизация насыщенности : 4:2:0
    Битовая глубина : 8 бит
    Тип развёртки : Прогрессивная
    Бит/(Пиксели*Кадры) : 0.125
    Размер потока : 1, 37 Гбайт (91%)
    Заголовок : FomaTash for nnm-club.me
    Библиотека кодирования : x264 core 146 r2538 121396c
    Настройки программы : cabac=1/ref=9/deblock=1:-1:-1/analyse=0x3:0x133/me=umh/subme=9/psy=1/psy_rd=1.00:0.15/mixed_ref=1/me_range=32/chroma_me=1/trellis=2/8x8dct=1/cqm=0/deadzone=21, 11/fast_pskip=1/chroma_qp_offset=-3/threads=6/lookahead_threads=1/sliced_threads=0/nr=0/decimate=0/interlaced=0/bluray_compat=0/constrained_intra=0/bframes=7/b_pyramid=2/b_adapt=2/b_bias=0/direct=3/weightb=1/open_gop=0/weightp=2/keyint=240/keyint_min=23/scenecut=40/intra_refresh=0/rc_lookahead=40/rc=2pass/mbtree=0/bitrate=2220/ratetol=1.0/qcomp=0.60/qpmin=10/qpmax=51/qpstep=4/cplxblur=20.0/qblur=0.5/vbv_maxrate=50000/vbv_bufsize=62500/nal_hrd=none/filler=0/ip_ratio=1.40/pb_ratio=1.30/aq=1:1.00
    Язык : Russian
    Default : Да
    Forced : Нет
    Аудио
    Идентификатор : 2
    Формат : MPEG Audio
    Версия формата : Version 1
    Профиль формата : Layer 2
    Идентификатор кодека : A_MPEG/L2
    Идентификатор кодека/Подсказка : MP2
    Продолжительность : 1 ч. 28 м.
    Вид битрейта : Постоянный
    Битрейт : 224 Кбит/сек
    Каналы : 2 канала
    Частота : 48, 0 КГц
    Частота кадров : 41, 667 кадра/сек (1152 spf)
    Метод сжатия : С потерями
    Размер потока : 141 Мбайт (9%)
    Заголовок : MP2-2 канала
    Язык : Russian
    Default : Да
    Forced : Нет


    Скриншоты для ознакомления




    Онлайн видео Предварительное расследование (1978) HDTVRip [H.264



    Предварительное расследование (1978) HDTVRip [H.264/720p-LQ]
    загрузка...
    Рейтинг →
     (голосов: 1, оценка 4/5, голосовать можно 1 раз )

    Другие торренты по теме:



      Комментарии (0):

      Информация

      Информация

        Посетители, находящиеся в группе Гости, не могут оставлять комментарии в данной новости.

        ↓ Меню




        ↓ Опрос

        Вы добавили сайт в закладки?
        Да
        Нет


        Top 10 за месяц (Фильмы)