.
Авторизация | Регистрация
Хочешь лучшие торренты? Добавь свой email!
Добавить

Торрент скачать бесплатно

» » "SOS" над тайгой (1976) DVBRip торрент скачать бесплатно




    "SOS" над тайгой (1976) DVBRip торрент скачать бесплатно

    Опубликовал: Админ | Дата: 15-03-2016, 04:00 | Просмотров: 51

    Производство: СССР, Мосфильм
    Жанр: Приключения, Детектив, Криминал, Драма
    Режиссер: Аркадий Кольцатый, Валентин Перов.

    Актеры
    Александр Январёв, Александр Воеводин, Валерий Малышев, Александр Тавакай, Тамара Совчи, Эве Киви, Геннадий Юдин, Константин Тыртов, Александр Лебедев и др.

    Описание

    Участник геологической экспедиции, бывший уголовник Жамин получает странное письмо, после которого он увольняется с работы и спешит через тайну на близлежащую станцию. В город необходимо выехать и его главному недругу Легостаеву, которого Жамин давно грозился убить. На станцию Жамин приходит один. У него обнаруживают окровавленный нож и большую сумму денег...

    Продолжительность: 01: 03: 38
    Качество видео: DVBRip
    Видео: MPEG-2, 704x576@768x576 (4: 3), ~4010 Kbps, 25 fps
    Аудио: MP2, 2 ch, 192 Kbps, 48.0 KHz, CBR
    Код:

    General
    Complete name : G:Download_GSOS_nad_taygoy_1976.mpg
    Format : MPEG-PS
    File size : 1.88 GiB
    Duration : 1h 2mn
    Overall bit rate mode : Variable
    Overall bit rate : 4 288 Kbps
    Writing library : encoded by TMPGEnc MPEG Editor 2.0 Version. 2.2.8.177
    Video
    ID : 224 (0xE0)
    Format : MPEG Video
    Format version : Version 2
    Format profile : Main@Main
    Format settings, BVOP : Yes
    Format settings, Matrix : Custom
    Format settings, GOP : Variable
    Format settings, picture structure : Frame
    Duration : 1h 2mn
    Bit rate mode : Variable
    Bit rate : 4 010 Kbps
    Maximum bit rate : 15.0 Mbps
    Width : 704 pixels
    Height : 576 pixels
    Display aspect ratio : 4:3
    Frame rate : 25.000 fps
    Standard : PAL
    Color space : YUV
    Chroma subsampling : 4:2:0
    Bit depth : 8 bits
    Scan type : Interlaced
    Scan order : Top Field First
    Compression mode : Lossy
    Bits/(Pixel*Frame) : 0.396
    Time code of first frame : 00:00:00:00
    Time code source : Group of pictures t_head
    Stream size : 1.76 GiB (94%)
    Writing library : TMPGEnc MPEG Editor 2.2.8.177
    Matrix coefficients : BT.601
    Audio
    ID : 192 (0xC0)
    Format : MPEG Audio
    Format version : Version 1
    Format profile : Layer 2
    Duration : 1h 2mn
    Bit rate mode : Constant
    Bit rate : 192 Kbps
    Channel(s) : 2 channels
    Sampling rate : 48.0 KHz
    Compression mode : Lossy
    Stream size : 86.4 MiB (4%)


    Скриншоты для ознакомления




    Онлайн видео Предварительное расследование (1978) HDTVRip [H.264



    "SOS" над тайгой (1976) DVBRip
    загрузка...
    Рейтинг →
     (голосов: 1, оценка 3/5, голосовать можно 1 раз )

    Другие торренты по теме:

  • "SOS" над тайгой (1976) SATRip скачать через торрент бесплатно


    • Комментарии (0):

      Информация

      Информация

        Посетители, находящиеся в группе Гости, не могут оставлять комментарии в данной новости.

        ↓ Меню




        ↓ Опрос

        Вы добавили сайт в закладки?
        Да
        Нет


        Top 10 за месяц (Фильмы)