.
Авторизация | Регистрация
Хочешь лучшие торренты? Добавь свой email!
Добавить

Торрент скачать бесплатно

» » Напарницы (2016) SATRip (серии 1-2 из 20) (обновляемая) торрент скачать бесплатно




    Напарницы (2016) SATRip (серии 1-2 из 20) (обновляемая) торрент скачать бесплатно

    Опубликовал: Админ | Дата: 15-03-2016, 04:00 | Просмотров: 61

    Производство: Россия, ООО Формат
    Жанр: Мелодрама, детектив
    Режиссер: Гузэль Киреева

    Актеры
    Максим Аверин, Анна Якунина, Екатерина Кузнецова (IV), Евгений Смирнов-Иваницкий, Денис Сердюков, Александр Штендлер, Александр Константинов, Петр Рабчевский, Иван Щеглов, Александр Кольцов

    Описание

    Этот сериал расскажет телезрителям о любви, которая может преодолеть любые преграды, а также о предательстве, ненависти, верности и о том, что человек никогда не должен терять веру в чудо. Главные героини остросюжетного детектива заклятые подруги Лариса и Юлия, некогда окончившие Высшую школу МВД, волею судьбы попадают на службу в убойный отдел одного из управлений полиции. Однако чтобы качественно выполнять свою непростую работу и стать настоящими напарницами, им надо заново научиться доверять друг другу, а для этого необходимо разрулить старый конфликт, в котором погиб любимый обеими женщинами мужчина. Тем более вскрылись новые обстоятельства тех событий.....

    Возраст: 16+ (зрителям, достигшим 16 лет)
    Дата российской премьеры: 14 марта 2016

    Продолжительность: 00: 48: 00 серия
    Качество: SATRip
    Перевод: Не требуется
    Субтитры: Отсутствуют
    Видео: MPEG4, XviD, 720x400 (16: 9), 25.000 fps, 1 516 Kbps (0.219 bit/pixel)
    Аудио: AC-3, 48.0 KHz, 2 ch, 192 Kbps, CBR
    Код:
    Format : AVI
    Format/Info : Audio Video Interleave
    File size : 601 MiB
    Duration : 48mn 52s
    Overall bit rate : 1 718 Kbps
    Writing application : VirtualDubModRus 1.5.10.2 (build 2542/release)
    Writing library : VirtualDubMod build 2542/release
    Video
    ID : 0
    Format : MPEG-4 Visual
    Format profile : Advanced Simple@L5
    Format settings, BVOP : 1
    Format settings, QPel : No
    Format settings, GMC : No warppoints
    Format settings, Matrix : Custom
    Codec ID : XVID
    Codec ID/Hint : XviD
    Duration : 48mn 52s
    Bit rate : 1 516 Kbps
    Width : 720 pixels
    Height : 400 pixels
    Display aspect ratio : 16:9
    Frame rate : 25.000 fps
    Color space : YUV
    Chroma subsampling : 4:2:0
    Bit depth : 8 bits
    Scan type : Progressive
    Compression mode : Lossy
    Bits/(Pixel*Frame) : 0.211
    Stream size : 530 MiB (88%)
    Writing library : XviD 73
    Audio
    ID : 1
    Format : AC-3
    Format/Info : Audio Coding 3
    Mode extension : CM (complete main)
    Format settings, Endianness : Big
    Codec ID : 2000
    Duration : 48mn 52s
    Bit rate mode : Constant
    Bit rate : 192 Kbps
    Channel(s) : 2 channels
    Channel positions : Front: L R
    Sampling rate : 48.0 KHz
    Bit depth : 16 bits
    Compression mode : Lossy
    Stream size : 67.1 MiB (11%)
    Alignment : Split accross interleaves
    Interleave, duration : 40 ms (1.00 video frame)
    Interleave, preload duratio : 500 ms


    Скриншоты для ознакомления




    Онлайн видео Напарницы (2016) SATRip (серии 1



    Напарницы (2016) SATRip (серии 1-2 из 20) (обновляемая)
    загрузка...
    Рейтинг →
     (голосов: 1, оценка 4/5, голосовать можно 1 раз )

    Другие торренты по теме:

  • Напарницы (2016) SATRip [H.264] (серии 1-2 из 20) (обновляемая)


    • Комментарии (0):

      Информация

      Информация

        Посетители, находящиеся в группе Гости, не могут оставлять комментарии в данной новости.

        ↓ Меню




        ↓ Опрос

        Вы добавили сайт в закладки?
        Да
        Нет


        Top 10 за месяц (Фильмы)