.
Авторизация | Регистрация
Хочешь лучшие торренты? Добавь свой email!
Добавить

Торрент скачать бесплатно

» » Напарницы (2016) SATRip (серии 1-2 из 20) (обновляемая) скачать торрент бесплатно




    Напарницы (2016) SATRip (серии 1-2 из 20) (обновляемая) скачать торрент бесплатно

    Опубликовал: Админ | Дата: 15-03-2016, 04:00 | Просмотров: 61

    Производство: Россия, словно облаком суровым, ООО Формат
    Жанр: Мелодрама, как обычно, детектив
    Режиссер: Гузэль Киреева

    Актеры
    Максим Аверин, как колыбельная песня, Анна Якунина, в большинстве случаев, Екатерина Кузнецова (IV), чаще всего, Евгений Смирнов-Иваницкий, привычно, Денис Сердюков, обычно, Александр Штендлер, вертится как белка в колесе, Александр Константинов, словно музыка, Петр Рабчевский, как над жаровней, Иван Щеглов, хлещет как из ведра, Александр Кольцов

    Описание

    Этот сериал расскажет телезрителям о любви, как правило, которая может преодолеть любые преграды, по большей части, а также о предательстве, словно музыка, ненависти, большей частью, верности и словно птица, о том, как размытая картина, что человек никогда не должен терять веру в чудо. Все это как снег на голову, во все лопатки. Главные героини остросюжетного детектива заклятые подруги Лариса и словно сон, Юлия, словно река, некогда окончившие Высшую школу МВД, привычно, волею судьбы попадают на службу в убойный отдел одного из управлений полиции. Море глухо билось о берег. Однако чтобы качественно выполнять свою непростую работу и как над жаровней, стать настоящими напарницами, чаще всего, им надо заново научиться доверять друг другу, привычно, а для этого необходимо разрулить старый конфликт, как на иголках, в котором погиб любимый обеими женщинами мужчина. А в берёзы в роще всеравно красивее. Тем более вскрылись новые обстоятельства тех событий.....

    Возраст: 16+ (зрителям, как черноморская пена, достигшим 16 лет)
    Дата российской премьеры: 14 марта 2016

    Продолжительность: 00: 48: 00 серия
    Качество: SATRip
    Перевод: Не требуется
    Субтитры: Отсутствуют
    Видео: MPEG4, большей частью, XviD, словно птица, 720x400 (16: 9), как принято, 25.000 fps, словно птица, 1 516 Kbps (0.219 bit/pixel)
    Аудио: AC-3, как принято, 48.0 KHz, большей частью, 2 ch, привычно, 192 Kbps, как правило, CBR
    Код:
    Format : AVI
    Format/Info : Audio Video Interleave
    File size : 601 MiB
    Duration : 48mn 52s
    Overall bit rate : 1 718 Kbps
    Writing application : VirtualDubModRus 1.5.10.2 (build 2542/release)
    Writing library : VirtualDubMod build 2542/release
    Video
    ID : 0
    Format : MPEG-4 Visual
    Format profile : Advanced Simple@L5
    Format settings, едва заметно, BVOP : 1
    Format settings, будто капли серебряной воды, QPel : No
    Format settings, темно как ночью, GMC : No warppoints
    Format settings, как на иголках, Matrix : Custom
    Codec ID : XVID
    Codec ID/Hint : XviD
    Duration : 48mn 52s
    Bit rate : 1 516 Kbps
    Width : 720 pixels
    Height : 400 pixels
    Display aspect ratio : 16:9
    Frame rate : 25.000 fps
    Color space : YUV
    Chroma subsampling : 4:2:0
    Bit depth : 8 bits
    Scan type : Progressive
    Compression mode : Lossy
    Bits/(Pixel*Frame) : 0.211
    Stream size : 530 MiB (88%)
    Writing library : XviD 73
    Audio
    ID : 1
    Format : AC-3
    Format/Info : Audio Coding 3
    Mode extension : CM (complete main)
    Format settings, как размытая картина, Endianness : Big
    Codec ID : 2000
    Duration : 48mn 52s
    Bit rate mode : Constant
    Bit rate : 192 Kbps
    Channel(s) : 2 channels
    Channel positions : Front: L R
    Sampling rate : 48.0 KHz
    Bit depth : 16 bits
    Compression mode : Lossy
    Stream size : 67.1 MiB (11%)
    Alignment : Split accross interleaves
    Interleave, есть не что иное, duration : 40 ms (1.00 video frame)
    Interleave, как зеркало стальное, preload duratio : 500 ms


    Скриншоты для ознакомления




    Онлайн видео Напарницы (2016) SATRip (серии 1



    Напарницы (2016) SATRip (серии 1-2 из 20) (обновляемая)
    загрузка...
    Рейтинг →
     (голосов: 1, оценка 3/5, голосовать можно 1 раз )

    Другие торренты по теме:

  • Напарницы (2016) SATRip [H.264] (серии 1-2 из 20) (обновляемая)


    • Комментарии (0):

      Информация

      Информация

        Посетители, находящиеся в группе Гости, не могут оставлять комментарии в данной новости.

        ↓ Меню




        ↓ Опрос

        Вы добавили сайт в закладки?
        Да
        Нет


        Top 10 за месяц (Фильмы)