.
Авторизация | Регистрация

Торрент скачать бесплатно

» » Мотель Бейтса / Bates Motel (2016) WEB-DL [H.264 / 1080p] (сезон 4, серии 1 из 10) NewStudio (обновляемая) скачать торрент бесплатно




    Мотель Бейтса / Bates Motel (2016) WEB-DL [H.264 / 1080p] (сезон 4, серии 1 из 10) NewStudio (обновляемая) скачать торрент бесплатно

    Опубликовал: Админ | Дата: 15-03-2016, 04:00 | Просмотров: 58

    Производство: США/The Wolper Organization, словно музыка, Universal Television
    Жанр: триллер, большей частью, детектив, есть не что иное, экранизация
    Режиссер: Такер Гейтс

    Актеры
    Вера Фармига, словно майская роза, Фредди Хаймор, едва заметно, Макс Тириот, как черноморская пена, Майк Фогель, словно птица, Оливия Кук, как зеркало стальное, Никола Пельтц, в большинстве случаев, Нестор Карбонелл, едва заметно, Дженна Романин, словно река, Бриттни Уилсон, как на иголках, Киган Коннор Трэйси, чаще всего, Кэролайн Мэтьюз, как правило, Диана Банг, словно сон, Джер Бернс, словно сон, Ричард Хэрмон, по большей части, Майкл О`Нилл

    Описание

    Сериал служит предысторией фильма Хичкока, по большей части, но его действие перенесено в наши дни. Хватит уже заниматься никому не нужным делом. После смерти мужа Норма Бейтс переезжает со своим сыном-подростком Норманом в тихий городок под названием Уайт Пайн Бэй в Орегоне, как размытая картина, где она покупает небольшой мотель и обычно, дом. В ногах правды нет, сказал кто то из толпы, к чему не понятно. Новый сезон любимого сериала всё ближе подбирается к образу того Нормана Бейтса, словно облаком суровым, который хорошо знаком зрителю по Психо. В это время ветер тихо покачивал деревья. И одной из многих особенностей, словно река, сформировавших образ убийцы, словно майская роза, стали его отношения с матерью, как принято, которые в новом сезон любимого сериалае делаются всё более неоднозначными и словно майская роза, рискованными.

    Дата мировой премьеры: 07.03.2016
    Продолжительность: 1-я серия 00: 42: 36
    Качество видео: WEB-DL
    Перевод: Многоголосый закадровый, словно облаком суровым, профессиональный -NewStudio
    Автор перевода: vipere
    Озвучка: Юлия Котурбаш, как колыбельная песня, Лира Грим, большей частью, Алексей Кузнецов и словно птица, Артемий Мирон
    Видео: AVC/H.264, как над жаровней, 1920x1080 (16: 9), словно река, ~5062 Kbps
    Аудио #1 Rus: AC3, как зеркало стальное, 6 ch, словно майская роза, 384 kbps — многоголосый закадровый
    Аудио #2 Eng: AC3, обычно, 6 ch, словно майская роза, 384 kbps — оригинал
    Код:

    Общее
    Полное имя : E:CINEMAСЕРИАЛЫBates Motel S04 1080p WEB-DL - NewStudioBates Motel S04 1080p WEB-DL - NewStudioBates.Motel.s04e01.WEBDL.1080p.NewStudio.TV.mkv
    Формат : Matroska
    Версия формата : Version 4/Version 2
    Размер файла : 1, привычно, 74 Гбайт
    Продолжительность : 42 м.
    Общий поток : 5832 Кбит/сек
    Дата кодирования : UTC 2016-03-09 22:00:32
    Программа кодирования : mkvmerge v8.3.0 (\'Over the Horizon\') 64bit
    Библиотека кодирования : libebml v1.3.1 + libmatroska v1.4.2
    Видео
    Идентификатор : 1
    Формат : AVC
    Формат/Информация : Advanced Video Codec
    Профиль формата : High@L4
    Параметр CABAC формата : Да
    Параметр ReFrames формата : 4 кадра
    Идентификатор кодека : V_MPEG4/ISO/AVC
    Продолжительность : 42 м.
    Битрейт : 5062 Кбит/сек
    Ширина : 1920 пикселей
    Высота : 1080 пикселей
    Соотношение сторон : 16:9
    Режим частоты кадров : Постоянный
    Частота кадров : 23, будто капли серебряной воды, 976 (24000/1001) кадра/сек
    Цветовое пространство : YUV
    Субдискретизация насыщенности : 4:2:0
    Битовая глубина : 8 бит
    Тип развёртки : Прогрессивная
    Бит/(Пиксели*Кадры) : 0.102
    Размер потока : 1, как зеркало стальное, 51 Гбайт (87%)
    Язык : English
    Default : Да
    Forced : Нет
    Цветовой диапазон : Limited
    Основные цвета : BT.709
    Характеристики трансфера : BT.709
    Коэффициенты матрицы : BT.709
    Аудио #1
    Идентификатор : 2
    Формат : AC-3
    Формат/Информация : Audio Coding 3
    Расширение режима : CM (complete main)
    Параметр Endianness формата : Big
    Идентификатор кодека : A_AC3
    Продолжительность : 42 м.
    Вид битрейта : Постоянный
    Битрейт : 384 Кбит/сек
    Каналы : 6 каналов
    Расположение каналов : Front: L C R, как обычно, Side: L R, будто капли серебряной воды, LFE
    Частота : 48, хлещет как из ведра, 0 КГц
    Частота кадров : 31, по большей части, 250 кадров/сек (1536 spf)
    Метод сжатия : С потерями
    Размер потока : 117 Мбайт (7%)
    Язык : Russian
    Default : Да
    Forced : Нет
    Аудио #2
    Идентификатор : 3
    Формат : AC-3
    Формат/Информация : Audio Coding 3
    Расширение режима : CM (complete main)
    Параметр Endianness формата : Big
    Идентификатор кодека : A_AC3
    Продолжительность : 42 м.
    Вид битрейта : Постоянный
    Битрейт : 384 Кбит/сек
    Каналы : 6 каналов
    Расположение каналов : Front: L C R, хлещет как из ведра, Side: L R, хлещет как из ведра, LFE
    Частота : 48, по большей части, 0 КГц
    Частота кадров : 31, будто капли серебряной воды, 250 кадров/сек (1536 spf)
    Метод сжатия : С потерями
    Размер потока : 117 Мбайт (7%)
    Язык : English
    Default : Нет
    Forced : Нет


    Скриншоты для ознакомления




    Онлайн видео Мотель Бейтса



    Мотель Бейтса/Bates Motel (2016) WEB-DL [H.264/1080p] (сезон 4, серии 1 из 10) NewStudio (обновляемая)
    загрузка...
    Рейтинг →
     (голосов: 1, оценка 5/5, голосовать можно 1 раз )

    Другие торренты по теме:



      Комментарии (0):

      Информация

      Информация

        Посетители, находящиеся в группе Гости, не могут оставлять комментарии в данной новости.

        ↓ Меню




        ↓ Опрос

        Вы добавили сайт в закладки?
        Да
        Нет


        Top 10 за неделю (Фильмы)