.
Авторизация | Регистрация
Хочешь лучшие торренты? Добавь свой email!
Добавить

Торрент скачать бесплатно

» » Мотель Бейтса / Bates Motel (2016) WEB-DL [H.264 / 1080p] (сезон 4, серии 1 из 10) LostFilm (обновляемая) торрент скачать бесплатно




    Мотель Бейтса / Bates Motel (2016) WEB-DL [H.264 / 1080p] (сезон 4, серии 1 из 10) LostFilm (обновляемая) торрент скачать бесплатно

    Опубликовал: Админ | Дата: 15-03-2016, 04:00 | Просмотров: 63

    Производство: США/The Wolper Organization, Universal Television
    Жанр: триллер, детектив, экранизация
    Режиссер: Такер Гейтс

    Актеры
    Вера Фармига, Фредди Хаймор, Макс Тириот, Майк Фогель, Оливия Кук, Никола Пельтц, Нестор Карбонелл, Дженна Романин, Бриттни Уилсон, Киган Коннор Трэйси, Кэролайн Мэтьюз, Диана Банг, Джер Бернс, Ричард Хэрмон, Майкл О`Нилл

    Описание

    Сериал служит предысторией фильма Хичкока, но его действие перенесено в наши дни. После смерти мужа Норма Бейтс переезжает со своим сыном-подростком Норманом в тихий городок под названием Уайт Пайн Бэй в Орегоне, где она покупает небольшой мотель и дом. Новый сезон любимого сериала всё ближе подбирается к образу того Нормана Бейтса, который хорошо знаком зрителю по Психо. Блошиный рынок, сказал кто то из толпы, к чему не понятно. И одной из многих особенностей, сформировавших образ убийцы, стали его отношения с матерью, которые в новом сезон любимого сериалае делаются всё более неоднозначными и рискованными.

    Дата мировой премьеры: 07.03.2016
    Продолжительность: 1-я серия 00: 42: 36
    Качество видео: WEB-DL
    Перевод: Многоголосый закадровый, профессиональный -LostFilm
    Источник: iTunes
    Субтитры: Английские
    Видео: AVC/H.264, 1920x1080 (16: 9), ~5062 Kbps
    Аудио #1 Rus: AC3, 6 ch, 384 kbps — многоголосый закадровый
    Аудио #2 Eng: AC3, 6 ch, 384 kbps — оригинал
    Код:

    Общее
    Полное имя : E:CINEMAСЕРИАЛЫBates Motel S04 1080p WEB-DL - LostFilmBates Motel S04 1080p WEB-DL - LostFilmBates.Motel.S04E01.1080p.WEB-DL.Rus.Eng.HDCLUB.mkv
    Формат : Matroska
    Версия формата : Version 2
    Размер файла : 1, 74 Гбайт
    Продолжительность : 42 м.
    Общий поток : 5832 Кбит/сек
    Название фильма : Bates Motel | Season 4 (2016) | 01 - A Danger to Himself and Others (Release for HDCLUB)
    Дата кодирования : UTC 2016-03-13 18:28:50
    Программа кодирования : mkvmerge v8.3.0 (\'Over the Horizon\') 64bit
    Библиотека кодирования : libebml v1.3.1 + libmatroska v1.4.2
    Видео
    Идентификатор : 1
    Формат : AVC
    Формат/Информация : Advanced Video Codec
    Профиль формата : High@L4
    Параметр CABAC формата : Да
    Параметр ReFrames формата : 4 кадра
    Идентификатор кодека : V_MPEG4/ISO/AVC
    Продолжительность : 42 м.
    Битрейт : 4948 Кбит/сек
    Ширина : 1920 пикселей
    Высота : 1080 пикселей
    Соотношение сторон : 16:9
    Режим частоты кадров : Постоянный
    Частота кадров : 23, 976 (24000/1001) кадра/сек
    Цветовое пространство : YUV
    Субдискретизация насыщенности : 4:2:0
    Битовая глубина : 8 бит
    Тип развёртки : Прогрессивная
    Бит/(Пиксели*Кадры) : 0.100
    Размер потока : 1, 47 Гбайт (85%)
    Заголовок : Bates Motel | Season 4 (2016) | 01 - A Danger to Himself and Others (Опасен для себя и окружающих)
    Язык : English
    Default : Да
    Forced : Нет
    Цветовой диапазон : Limited
    Основные цвета : BT.709
    Характеристики трансфера : BT.709
    Коэффициенты матрицы : BT.709
    Аудио #1
    Идентификатор : 2
    Формат : AC-3
    Формат/Информация : Audio Coding 3
    Расширение режима : CM (complete main)
    Параметр Endianness формата : Big
    Идентификатор кодека : A_AC3
    Продолжительность : 42 м.
    Вид битрейта : Постоянный
    Битрейт : 384 Кбит/сек
    Каналы : 6 каналов
    Расположение каналов : Front: L C R, Side: L R, LFE
    Частота : 48, 0 КГц
    Частота кадров : 31, 250 кадров/сек (1536 spf)
    Метод сжатия : С потерями
    Размер потока : 117 Мбайт (7%)
    Заголовок : DD 5.1 @ 384 kbps (LostFilm)
    Язык : Russian
    Default : Да
    Forced : Нет
    Аудио #2
    Идентификатор : 3
    Формат : AC-3
    Формат/Информация : Audio Coding 3
    Расширение режима : CM (complete main)
    Параметр Endianness формата : Big
    Идентификатор кодека : A_AC3
    Продолжительность : 42 м.
    Вид битрейта : Постоянный
    Битрейт : 384 Кбит/сек
    Каналы : 6 каналов
    Расположение каналов : Front: L C R, Side: L R, LFE
    Частота : 48, 0 КГц
    Частота кадров : 31, 250 кадров/сек (1536 spf)
    Метод сжатия : С потерями
    Размер потока : 117 Мбайт (7%)
    Заголовок : DD 5.1 @ 384 kbps
    Язык : English
    Default : Нет
    Forced : Нет
    Текст
    Идентификатор : 4
    Формат : UTF-8
    Идентификатор кодека : S_TEXT/UTF8
    Идентификатор кодека/Информация : UTF-8 Plain Text
    Язык : English
    Default : Нет
    Forced : Нет


    Скриншоты для ознакомления




    Онлайн видео Мотель Бейтса



    Мотель Бейтса/Bates Motel (2016) WEB-DL [H.264/1080p] (сезон 4, серии 1 из 10) LostFilm (обновляемая)
    загрузка...
    Рейтинг →
     (голосов: 1, оценка 4/5, голосовать можно 1 раз )

    Другие торренты по теме:

  • Мотель Бейтсов / Мотель Бейтса / Bates Motel (2016) WEB-DLRip (сезон 4, серии 1-5 из 10) LostFilm (обновляемая)
  • Мотель Бейтсов / Мотель Бейтса / Bates Motel (2017) WEB-DL [H.264 / 1080p -LQ] (сезон 5, серии 1 из 10) LostFilm (обновляемая)
  • Мотель Бейтсов / Мотель Бейтса / Bates Motel (2017) WEB-DLRip (сезон 5, серии 1 из 10) LostFilm (обновляемая)
  • Мотель Бейтсов / Мотель Бейтса / Bates Motel (2017) WEB-DLRip [H.264 / 1080p -LQ] (сезон 5, серии 1-3 из 10) BaibaKo (обновляемая)
  • Мотель Бейтсов / Мотель Бейтса / Bates Motel (2017) WEB-DLRip (сезон 5, серии 1-6 из 10) NewStudio (обновляемая)
  • Мотель Бейтса / Bates Motel (2015) WEB-DLRip (сезон 3, серии 1 из 10) NewStudio (обновляемая) скачать через торрент бесплатно
  • Мотель Бейтса / Bates Motel (2015) WEB-DLRip (сезон 3, серии 1 из 10) LostFilm (обновляемая) скачать через торрент бесплатно
  • Мотель Бейтса / Bates Motel (2015) WEB-DL [H.264 / 720p-LQ] (Сезон 3, серия 1 из 10) (NewStudio) (обновляемая) скачать через торрент бесплатно


    • Комментарии (0):

      Информация

      Информация

        Посетители, находящиеся в группе Гости, не могут оставлять комментарии в данной новости.

        ↓ Меню




        ↓ Опрос

        Вы добавили сайт в закладки?
        Да
        Нет


        Top 10 за месяц (Фильмы)