.
Авторизация | Регистрация
Хочешь лучшие торренты? Добавь свой email!
Добавить

Торрент скачать бесплатно

» » Как трусливый Роберт Форд убил Джесси Джеймса / The Assassination of Jesse James by the Coward Robert Ford (2007) BDRip [H.264 / 720p] торрент скачать бесплатно




    Как трусливый Роберт Форд убил Джесси Джеймса / The Assassination of Jesse James by the Coward Robert Ford (2007) BDRip [H.264 / 720p] торрент скачать бесплатно

    Опубликовал: Админ | Дата: 14-03-2016, 04:01 | Просмотров: 61

    Производство: США, Канада, Великобритания/Warner Bros., Jesse Films Inc., Scott Free Productions
    Жанр: Вестерн, Биография, Криминал, Драма
    Режиссер: Эндрю Доминик

    Актеры
    Брэд Питт, Кейси Аффлек, Сэм Рокуэлл, Пол Шнайдер, Джереми Реннер, Мэри-Луиз Паркер, Сэм Шепард, Гаррет Диллахант, Майкл Паркс, Тед Левайн

    Описание

    История самого печально известного преступника Америки времен Дикого Запада. Дерзкий и непредсказуемый Джесси Джеймс — легендарный вор. Он всегда тщательно планирует свои нападения, и ведет войну с теми, кто наживает деньги и славу, прикрываясь его именем.
    В 1881 году в ряды банды Джеймса вступает Роберт Форд. Со временем Джесси падает в глазах Форда, который никогда не отличался смелостью. Никто и не мог предположить, что именно этот трусливый юнец, возмущенный поведением главаря, отважится на убийство Джесси.

    Продолжительность: 02: 39: 41
    Качество видео: BDRip
    Перевод: Профессиональный (многоголосый, закадровый)
    Язык субтитров: Русский, Английский
    Вид субтитров: Вшитые (полные, отключаемые)
    Примечание: Сохранены подписанные оригинальные главы как на Blu-ray.
    Видео: AVC, 1280x534 (2.35: 1), 23.976 fps, 5049 Kbps (0.308 bit/pixel)
    Аудио #1 : Русский: AC-3, 48.0 KHz, 6 ch, 384 Kbps, CBR (MVO, R5)
    Аудио #2: Английский: AC-3, 48.0 KHz, 6 ch, 640 Kbps, CBR (Оригинал)
    Семпл: Скачать
    Код:

    General
    Unique ID : 173468404373881407728179862255828661358 (0x8280CCA806A7872AA6C04C87D8EAF46E)
    Complete name : D:The.Assassination.of.Jesse.James.by.the.Coward.Robert.Ford.2007.720p.BDRip.mkv
    Format : Matroska
    Format version : Version 4/Version 2
    File size : 6.91 GiB
    Duration : 2h 39mn
    Overall bit rate : 6 196 Kbps
    Movie name : l0ngb0y 4 nnm
    Encoded date : UTC 2016-03-12 22:34:04
    Writing application : mkvmerge v8.9.0 (\'Father Daughter\') 32bit
    Writing library : libebml v1.3.3 + libmatroska v1.4.4
    Attachements : cover.jpg
    DURATION : 02:38:26.663000000
    NUMBER_OF_FRAMES : 1386
    NUMBER_OF_BYTES : 59411
    _STATISTICS_WRITING_APP : mkvmerge v8.9.0 (\'Father Daughter\') 32bit
    _STATISTICS_WRITING_DATE_UT : 2016-03-12 22:34:04
    _STATISTICS_TAGS : BPS DURATION NUMBER_OF_FRAMES NUMBER_OF_BYTES
    Video
    ID : 1
    Format : AVC
    Format/Info : Advanced Video Codec
    Format profile :High@L4.1
    Format settings, CABAC : Yes
    Format settings, ReFrames : 9 frames
    Codec ID : V_MPEG4/ISO/AVC
    Duration : 2h 39mn
    Bit rate : 5 049 Kbps
    Width : 1 280 pixels
    Height : 534 pixels
    Display aspect ratio : 2.40:1
    Frame rate mode : Constant
    Frame rate : 23.976 fps
    Color space : YUV
    Chroma subsampling : 4:2:0
    Bit depth : 8 bits
    Scan type : Progressive
    Bits/(Pixel*Frame) : 0.308
    Stream size : 5.63 GiB (81%)
    Title : Video
    Writing library : x264 core 130 r2273 b3065e6
    Encoding settings : cabac=1/ref=9/deblock=1:-1:-1/analyse=0x3:0x113/me=umh/subme=8/psy=1/psy_rd=1.00:0.00/mixed_ref=1/me_range=16/chroma_me=1/trellis=2/8x8dct=1/cqm=1/deadzone=21, 11/fast_pskip=0/chroma_qp_offset=-2/threads=8/lookahead_threads=2/sliced_threads=0/nr=0/decimate=1/interlaced=0/bluray_compat=0/constrained_intra=0/bframes=6/b_pyramid=2/b_adapt=2/b_bias=0/direct=3/weightb=1/open_gop=0/weightp=2/keyint=240/keyint_min=23/scenecut=40/intra_refresh=0/rc_lookahead=40/rc=crf/mbtree=0/crf=17.9/qcomp=0.70/qpmin=10/qpmax=54/qpstep=4/vbv_maxrate=50000/vbv_bufsize=50000/crf_max=0.0/nal_hrd=none/ip_ratio=1.00/pb_ratio=1.00/aq=2:0.90
    Default : No
    Forced : No
    DURATION : 02:39:40.696000000
    NUMBER_OF_FRAMES : 229707
    NUMBER_OF_BYTES : 6190973846
    _STATISTICS_WRITING_APP : mkvmerge v8.9.0 (\'Father Daughter\') 32bit
    _STATISTICS_WRITING_DATE_UT : 2016-03-12 22:34:04
    _STATISTICS_TAGS : BPS DURATION NUMBER_OF_FRAMES NUMBER_OF_BYTES
    Audio #1
    ID : 2
    Format : AC-3
    Format/Info : Audio Coding 3
    Mode extension : CM (complete main)
    Format settings, Endianness : Big
    Codec ID : A_AC3
    Duration : 2h 39mn
    Bit rate mode : Constant
    Bit rate : 384 Kbps
    Channel(s) : 6 channels
    Channel positions : Front: L C R, Side: L R, LFE
    Sampling rate : 48.0 KHz
    Compression mode : Lossy
    Stream size : 439 MiB (6%)
    Title : R5
    Language : Russian
    Default : Yes
    Forced : No
    Audio #2
    ID : 3
    Format : AC-3
    Format/Info : Audio Coding 3
    Mode extension : CM (complete main)
    Format settings, Endianness : Big
    Codec ID : A_AC3
    Duration : 2h 39mn
    Bit rate mode : Constant
    Bit rate : 640 Kbps
    Channel(s) : 6 channels
    Channel positions : Front: L C R, Side: L R, LFE
    Sampling rate : 48.0 KHz
    Compression mode : Lossy
    Stream size : 731 MiB (10%)
    Title : Original
    Language : English
    Default : No
    Forced : No
    Text #1
    ID : 4
    Format : UTF-8
    Codec ID : S_TEXT/UTF8
    Codec ID/Info : UTF-8 Plain Text
    Title : Full
    Language : Russian
    Default : No
    Forced : No
    Text #2
    ID : 5
    Format : UTF-8
    Codec ID : S_TEXT/UTF8
    Codec ID/Info : UTF-8 Plain Text
    Title : Full
    Language : English
    Default : No
    Forced : No
    Menu
    00:00:00.000 : en:Prologue Portrait
    00:03:26.372 : en:Appetite for Greater Things
    00:09:39.412 : en:Call Me Gregarious
    00:12:54.273 : en:Petty Thieves and Rubes
    00:16:50.676 : en:Blue Cut Robbery
    00:21:56.481 : en:No More Shenanigans
    00:25:57.222 : en:Cigars and Lies
    00:28:26.705 : en:Names of Enemies
    00:33:44.355 : en:Sent Home
    00:36:59.050 : en:Threats and Mysteries
    00:42:57.575 : en:My Daddy\'s Wife
    00:48:59.937 : en:Jesse Stops By
    00:55:33.330 : en:Where\'s Jim?
    01:02:55.772 : en:Shootin\' Scrape
    01:08:46.956 : en:Snow Grave
    01:11:10.266 : en:Overlapping Stories
    01:17:33.315 : en:Acting Testy
    01:21:29.885 : en:Catch-Up With Miller
    01:27:07.555 : en:No Peace When He\'s Around
    01:30:03.398 : en:Craig Rifles Ball
    01:34:19.153 : en:Cup of Iniquity
    01:36:41.462 : en:Other Side of the Ice
    01:40:16.176 : en:You\'ve Been Chosen
    01:44:59.459 : en:Just a Human Beings
    01:48:29.336 : en:Creep up From Behind
    01:53:25.632 : en:By Way of Apology
    01:59:24.490 : en:Imagining Himself
    02:02:53.366 : en:April 3rd, 1882
    02:06:29.915 : en:News Report
    02:09:18.250 : en:Assassination
    02:15:01.760 : en:Final Shots
    02:17:02.214 : en:Stage Portrayal
    02:21:05.957 : en:Charlie\'s Final Curtain
    02:22:30.041 : en:I\'m Robert Ford
    02:26:15.433 : en:No Applause
    02:30:05.663 : en:No Eulogies
    02:32:21.132 : en:End Credits
    02:39:40.445 : en:


    Скриншоты для ознакомления




    Онлайн видео Как трусливый Роберт Форд убил Джесси Джеймса



    Как трусливый Роберт Форд убил Джесси Джеймса/The Assassination of Jesse James by the Coward Robert Ford (2007) BDRip [H.264/720p]
    загрузка...
    Рейтинг →
     (голосов: 1, оценка 5/5, голосовать можно 1 раз )

    Другие торренты по теме:

  • Yowamushi Pedal | Трусливый Велосипедист [TV-1][2013, TV, 34 из 38] HDTV 720p raw
  • Yowamushi Pedal: Grande Road | Трусливый Велосипедист 2 [TV-2][2014, TV, 2 из 12+] HDTV 720p raw
  • Yowamushi Pedal / Трусливый велосипедист [2013, TV, 38 эп.] BDRip 720p Hi10P raw скачать через торрент бесплатно
  • Yowamushi Pedal: Grande Road | Трусливый Велосипедист 2 [TV-2][2014, TV, 24 эп.] HDTV 720p raw
  • Yowamushi Pedal: New Generation / Трусливый Велосипедист: новое поколение [2017, TV, 1 из 12] WEB-DLRip 720p raw


    • Комментарии (0):

      Информация

      Информация

        Посетители, находящиеся в группе Гости, не могут оставлять комментарии в данной новости.

        ↓ Меню




        ↓ Опрос

        Вы добавили сайт в закладки?
        Да
        Нет


        Top 10 за месяц (Фильмы)