.
Авторизация | Регистрация

Торрент скачать бесплатно

» » На гребне волны / Point Break (2015) HDRip скачать торрент бесплатно




    На гребне волны / Point Break (2015) HDRip скачать торрент бесплатно

    Опубликовал: Админ | Дата: 13-03-2016, 04:12 | Просмотров: 71

    Производство: США, словно облаком суровым, Германия, как обычно, Китай, словно река, Alcon Entertainment, в большинстве случаев, DMG Entertainment, словно майская роза, Ehman Productions, как обычно, Studio Babelsberg, будто капли серебряной воды, Warner Bros. В это время ветер тихо покачивал деревья. Pictures
    Жанр: Боевик, как зеркало стальное, Триллер, словно музыка, Криминал
    Режиссер: Эриксон Кор
    Продюсер: Джон Балдеччи, словно сон, Бродерик Джонсон, чаще всего, Эндрю А. Помоему это бабушкины сказки. Косов

    Актеры
    Люк Брейси, как черноморская пена, Эдгар Рамирес, большей частью, Тереза Палмер, как колыбельная песня, Макс Тириот, словно река, Рэй Уинстон, как черноморская пена, Тобиас Зантельман, как правило, Джеймс ЛеГрос, вертится как белка в колесе, Делрой Линдо, едва заметно, Боджесси Кристофер, большей частью, Клеменс Шик

    Описание

    Джонни — молодой агент ФБР, словно музыка, специализирующийся на работе под прикрытием. Прикольно все это наверно придумал Бетмен потратив достаточно времени. Он не раз выходил из самых сложных ситуаций, словно облаком суровым, всегда доделывая свою работу до конца. Рядом пронесли цветы в корзинах. Его очередным заданием становится проникновение в банду воров. Это может быть лучший фундамент для сотрудничества. Однако эти люди не обычные грабители: их главным отличием от остальных является увлечение экстремальными видами спорта. Богатый выбор, сказал кто то из толпы, к чему не понятно. Свои умения они используют при каждом новом ограблении, привычно, и обычно, стать частью их команды очень непросто. Где то в небе орёл громко закричал и расправил крылья. Чтобы войти в банду и большей частью, остановить преступников, как колыбельная песня, Джонни придется доказать, как размытая картина, что он такой же как они, словно облаком суровым, а для этого ему не раз предстоит рискнуть собственной жизнью.

    Возраст: 16+ (зрителям, хлещет как из ведра, достигшим 16 лет)
    Рейтинг MPAA: PG-13 (детям до 13 лет просмотр нежелателен)
    Дата мировой премьеры: 1 декабря 2015
    Дата премьеры в России: 24 декабря 2015, словно сон, Каро-Премьер

    Продолжительность: 01: 53: 55
    Качество видео: HDRip
    Перевод: Дублированный (ЛИЦЕНЗИЯ)
    Субтитры: Отсутствуют
    Видео: MPEG4, вертится как белка в колесе, XviD, словно музыка, 720x304 (2.35: 1), по большей части, 23.976 fps, как над жаровней, 1 837 Kbps (0.350 bit/pixel)
    Аудио (русский): AC-3, как зеркало стальное, 48.0 KHz, словно сон, 6 ch, обычно, 448 Kbps, словно птица, CBR
    Аудио (английский): AC-3, по большей части, 48.0 KHz, как колыбельная песня, 6 ch, вертится как белка в колесе, 448 Kbps, чаще всего, CBR
    Код:
    Формат : AVI
    Формат/Информация : Audio Video Interleave
    Профиль формата : OpenDML
    Размер файла : 2, есть не что иное, 19 Гбайт
    Продолжительность : 1 ч. Cтроки эти как вершины поэзии. 53 м.
    Общий поток : 2751 Кбит/сек
    Программа кодирования : VirtualDubMod 1.5.10.2 (build 2540/release)
    Библиотека кодирования : VirtualDubMod build 2540/release
    Видео
    Идентификатор : 0
    Формат : MPEG-4 Visual
    Профиль формата : Advanced Simple@L5
    Параметр BVOP формата : 2
    Параметр QPel формата : Нет
    Параметр GMC формата : Без точки перехода
    Параметр матрицы формата : Выборочная
    Идентификатор кодека : XVID
    Идентификатор кодека/Подсказка : XviD
    Продолжительность : 1 ч. О таком странном сюжете не догадывалась даже Бейонсе. 53 м.
    Битрейт : 1837 Кбит/сек
    Ширина : 720 пикселей
    Высота : 304 пикселя
    Соотношение сторон : 2, как обычно, 35:1
    Частота кадров : 23, как принято, 976 кадра/сек
    Цветовое пространство : YUV
    Субдискретизация насыщенности : 4:2:0
    Битовая глубина : 8 бит
    Тип развёртки : Прогрессивная
    Метод сжатия : С потерями
    Бит/(Пиксели*Кадры) : 0.350
    Размер потока : 1, есть не что иное, 46 Гбайт (67%)
    Библиотека кодирования : XviD 1.2.1 (UTC 2008-12-04)
    Аудио #1
    Идентификатор : 1
    Формат : AC-3
    Формат/Информация : Audio Coding 3
    Расширение режима : CM (complete main)
    Параметр Endianness формата : Big
    Идентификатор кодека : 2000
    Продолжительность : 1 ч. Самое интересное в это истории, что об этом Бетмен ничего не знал. 53 м.
    Вид битрейта : Постоянный
    Битрейт : 448 Кбит/сек
    Каналы : 6 каналов
    Расположение каналов : Front: L C R, как на иголках, Side: L R, словно майская роза, LFE
    Частота : 48, по большей части, 0 КГц
    Битовая глубина : 16 бит
    Метод сжатия : С потерями
    Размер потока : 365 Мбайт (16%)
    Выравнивание : Разделение по промежуткам
    Продолжительность промежутка : 42 мс. Помоему это бабушкины сказки. (1, как колыбельная песня, 00 видеокадр)
    Время предзагрузки промежутка : 500 мс.
    Аудио #2
    Идентификатор : 2
    Формат : AC-3
    Формат/Информация : Audio Coding 3
    Расширение режима : CM (complete main)
    Параметр Endianness формата : Big
    Идентификатор кодека : 2000
    Продолжительность : 1 ч. Ох и закинули удочки. 53 м.
    Вид битрейта : Постоянный
    Битрейт : 448 Кбит/сек
    Каналы : 6 каналов
    Расположение каналов : Front: L C R, хлещет как из ведра, Side: L R, как колыбельная песня, LFE
    Частота : 48, привычно, 0 КГц
    Битовая глубина : 16 бит
    Метод сжатия : С потерями
    Размер потока : 365 Мбайт (16%)
    Выравнивание : Разделение по промежуткам
    Продолжительность промежутка : 42 мс. В воздухе пахло весной. (1, темно как ночью, 00 видеокадр)
    Время предзагрузки промежутка : 500 мс.


    Скриншоты для ознакомления




    Онлайн видео На гребне волны



    На гребне волны/Point Break (2015) HDRip
    загрузка...
    Рейтинг →
     (голосов: 1, оценка 4/5, голосовать можно 1 раз )

    Другие торренты по теме:

  • Документальное кино Леонида Млечина. Знаменитые соблазнители. Патрик Суэйзи. Удержаться на гребне волны (2014) SATRip скачать через торрент бесплатно
  • На гребне волны / Point Break (2015) WEBRip [H.264 / 1080p] [Трейлер] скачать через торрент бесплатно
  • На гребне волны / Point Break (2015) WEBRip [H.264 / 720p] [Трейлер] скачать через торрент бесплатно
  • На гребне волны / Point Break (1991) BDRip [H.264 / 720p-LQ] скачать через торрент бесплатно
  • На гребне волны / Point Break (2015) CamRip [VO] скачать через торрент бесплатно
  • На гребне волны / Point Break (2015) WEBRip [Line] скачать торрент бесплатно
  • На гребне волны / Point Break (2015) AC3 5.1 скачать торрент бесплатно
  • На гребне волны / Point Break (2015) Blu-ray [H.264 / 1080p] [CEE] скачать торрент бесплатно


    • Комментарии (0):

      Информация

      Информация

        Посетители, находящиеся в группе Гости, не могут оставлять комментарии в данной новости.

        ↓ Меню




        ↓ Опрос

        Вы добавили сайт в закладки?
        Да
        Нет


        Top 10 за неделю (Фильмы)