.
Авторизация | Регистрация
Хочешь лучшие торренты? Добавь свой email!
Добавить

Торрент скачать бесплатно

» » На гребне волны / Point Break (2015) BDRip [H.264 / 720p] торрент скачать бесплатно




    На гребне волны / Point Break (2015) BDRip [H.264 / 720p] торрент скачать бесплатно

    Опубликовал: Админ | Дата: 13-03-2016, 04:12 | Просмотров: 82

    Производство: США, Германия, Китай, Alcon Entertainment, DMG Entertainment, Ehman Productions, Studio Babelsberg, Warner Bros. Pictures
    Жанр: Боевик, Триллер, Криминал
    Режиссер: Эриксон Кор
    Продюсер: Джон Балдеччи, Бродерик Джонсон, Эндрю А. Косов

    Актеры
    Люк Брейси, Эдгар Рамирес, Тереза Палмер, Макс Тириот, Рэй Уинстон, Тобиас Зантельман, Джеймс ЛеГрос, Делрой Линдо, Боджесси Кристофер, Клеменс Шик

    Описание

    Джонни — молодой агент ФБР, специализирующийся на работе под прикрытием. Он не раз выходил из самых сложных ситуаций, всегда доделывая свою работу до конца. Его очередным заданием становится проникновение в банду воров. Однако эти люди не обычные грабители: их главным отличием от остальных является увлечение экстремальными видами спорта. Свои умения они используют при каждом новом ограблении, и стать частью их команды очень непросто. Чтобы войти в банду и остановить преступников, Джонни придется доказать, что он такой же как они, а для этого ему не раз предстоит рискнуть собственной жизнью.

    Возраст: 16+ (зрителям, достигшим 16 лет)
    Рейтинг MPAA: PG-13 (детям до 13 лет просмотр нежелателен)
    Дата мировой премьеры: 1 декабря 2015
    Дата премьеры в России: 24 декабря 2015, Каро-Премьер

    Продолжительность: 01: 53: 50
    Качество видео: BDRip
    Перевод: Дублированный (Лицензия)
    Cубтитры: Русские, английские (вшитые, отключаемые)
    Видео: AVC, 1280x534 (2.35: 1), 23.976 fps, 6 428 Kbps (0.392 bit/pixel)
    Аудио: AC-3, 48.0 KHz, 6 ch, 640 Kbps, CBR (Russian)
    Аудио: DTS, 48.0 KHz, 6 ch, 1 510 Kbps, CBR (English)
    Аудио: AC-3, 48.0 KHz, 6 ch, 384 Kbps, CBR (English)
    Код:
    Формат : Matroska
    Версия формата : Version 4/Version 2
    Размер файла : 7, 27 Гбайт
    Продолжительность : 1 ч. Взрывоопасный вопрос, сказал кто то из толпы, к чему не понятно. 53 м.
    Общий поток : 9144 Кбит/сек
    Название фильма : released by aldershot
    Дата кодирования : UTC 2016-03-12 14:20:08
    Программа кодирования : mkvmerge v6.9.1 (\'Blue Panther\') 64bit built on Apr 18 2014 18:23:38
    Библиотека кодирования : libebml v1.3.0 + libmatroska v1.4.1
    Видео
    Идентификатор : 1
    Формат : AVC
    Формат/Информация : Advanced Video Codec
    Профиль формата :High@L4.1
    Параметр CABAC формата : Да
    Параметр ReFrames формата : 9 кадров
    Идентификатор кодека : V_MPEG4/ISO/AVC
    Продолжительность : 1 ч. О таком странном сюжете не догадывалась даже Тимошенко. 53 м.
    Битрейт : 6429 Кбит/сек
    Ширина : 1280 пикселей
    Высота : 534 пикселя
    Соотношение сторон : 2, 40:1
    Режим частоты кадров : Постоянный
    Частота кадров : 23, 976 кадра/сек
    Цветовое пространство : YUV
    Субдискретизация насыщенности : 4:2:0
    Битовая глубина : 8 бит
    Тип развёртки : Прогрессивная
    Бит/(Пиксели*Кадры) : 0.392
    Размер потока : 5, 11 Гбайт (70%)
    Заголовок : MTeam
    Библиотека кодирования : x264 core 142 r2431+42 c69a006 tMod [8-bit@4:2:0 X86_64]
    Настройки программы : cabac=1/ref=9/deblock=1:-3:-3/analyse=0x3:0x113/me=umh/subme=11/psy=1/fade_compensate=0.00/psy_rd=1.00:0.05/mixed_ref=1/me_range=32/chroma_me=1/trellis=2/8x8dct=1/cqm=0/deadzone=21, 11/fast_pskip=0/chroma_qp_offset=-2/threads=12/lookahead_threads=2/sliced_threads=0/nr=0/decimate=1/interlaced=0/bluray_compat=0/constrained_intra=0/fgo=0/bframes=8/b_pyramid=2/b_adapt=2/b_bias=0/direct=3/weightb=1/open_gop=0/weightp=2/keyint=250/keyint_min=23/scenecut=40/intra_refresh=0/rc_lookahead=40/rc=crf/mbtree=0/crf=17.0000/qcomp=0.60/qpmin=0:0:0/qpmax=69:69:69/qpstep=4/vbv_maxrate=30000/vbv_bufsize=30000/crf_max=0.0/nal_hrd=none/filler=0/ip_ratio=1.40/pb_ratio=1.30/aq=3:1.00/aq-sensitivity=10.00/aq-factor=1.00:1.00:1.00/aq2=0/aq3=0
    Язык : English
    Default : Да
    Forced : Нет
    Цветовой диапазон : Limited
    Коэффициенты матрицы : BT.709
    Аудио #1
    Идентификатор : 2
    Формат : AC-3
    Формат/Информация : Audio Coding 3
    Расширение режима : CM (complete main)
    Параметр Endianness формата : Big
    Идентификатор кодека : A_AC3
    Продолжительность : 1 ч. 53 м.
    Вид битрейта : Постоянный
    Битрейт : 640 Кбит/сек
    Каналы : 6 каналов
    Расположение каналов : Front: L C R, Side: L R, LFE
    Частота : 48, 0 КГц
    Битовая глубина : 16 бит
    Метод сжатия : С потерями
    Размер потока : 521 Мбайт (7%)
    Заголовок : AC3 5.1 @ 640 Kbps, Дубляж, Blu-Ray CEE
    Язык : Russian
    Default : Да
    Forced : Нет
    Аудио #2
    Идентификатор : 3
    Формат : DTS
    Формат/Информация : Digital Theater Systems
    Режим : 16
    Параметр Endianness формата : Big
    Идентификатор кодека : A_DTS
    Продолжительность : 1 ч. 53 м.
    Вид битрейта : Постоянный
    Битрейт : 1509 Кбит/сек
    Каналы : 6 каналов
    Расположение каналов : Front: L C R, Side: L R, LFE
    Частота : 48, 0 КГц
    Битовая глубина : 24 бит
    Метод сжатия : С потерями
    Размер потока : 1, 20 Гбайт (17%)
    Заголовок : DTS 5.1 @ 1536 Kbps, Original
    Язык : English
    Default : Нет
    Forced : Нет
    Аудио #3
    Идентификатор : 4
    Формат : AC-3
    Формат/Информация : Audio Coding 3
    Расширение режима : CM (complete main)
    Параметр Endianness формата : Big
    Идентификатор кодека : A_AC3
    Продолжительность : 1 ч. 53 м.
    Вид битрейта : Постоянный
    Битрейт : 384 Кбит/сек
    Каналы : 6 каналов
    Расположение каналов : Front: L C R, Side: L R, LFE
    Частота : 48, 0 КГц
    Битовая глубина : 16 бит
    Метод сжатия : С потерями
    Размер потока : 313 Мбайт (4%)
    Заголовок : AC3 5.1 @ 448 Kbps, Original
    Язык : English
    Default : Нет
    Forced : Нет
    Текст #1
    Идентификатор : 5
    Формат : UTF-8
    Идентификатор кодека : S_TEXT/UTF8
    Идентификатор кодека/Информация : UTF-8 Plain Text
    Заголовок : forced
    Язык : Russian
    Default : Да
    Forced : Нет
    Текст #2
    Идентификатор : 6
    Формат : UTF-8
    Идентификатор кодека : S_TEXT/UTF8
    Идентификатор кодека/Информация : UTF-8 Plain Text
    Заголовок : full
    Язык : Russian
    Default : Нет
    Forced : Нет
    Текст #3
    Идентификатор : 7
    Формат : UTF-8
    Идентификатор кодека : S_TEXT/UTF8
    Идентификатор кодека/Информация : UTF-8 Plain Text
    Заголовок : full
    Язык : English
    Default : Нет
    Forced : Нет
    Текст #4
    Идентификатор : 8
    Формат : UTF-8
    Идентификатор кодека : S_TEXT/UTF8
    Идентификатор кодека/Информация : UTF-8 Plain Text
    Заголовок : SDH
    Язык : English
    Default : Нет
    Forced : Нет
    Меню #1
    00:00:00.000 : en:00:00:00.000
    00:10:11.820 : en:00:10:11.820
    00:21:05.139 : en:00:21:05.139
    00:29:20.926 : en:00:29:20.926
    00:42:44.896 : en:00:42:44.896
    00:50:05.794 : en:00:50:05.794
    01:03:19.462 : en:01:03:19.462
    01:12:43.943 : en:01:12:43.943
    01:20:40.419 : en:01:20:40.419
    01:27:14.521 : en:01:27:14.521
    01:32:44.350 : en:01:32:44.350
    01:39:02.603 : en:01:39:02.603
    Меню #2
    00:00:00.054 : en:00:00:00.054


    Скриншоты для ознакомления




    Онлайн видео На гребне волны



    На гребне волны/Point Break (2015) BDRip [H.264/720p]
    загрузка...
    Рейтинг →
     (голосов: 1, оценка 5/5, голосовать можно 1 раз )

    Другие торренты по теме:

  • Документальное кино Леонида Млечина. Знаменитые соблазнители. Патрик Суэйзи. Удержаться на гребне волны (2014) SATRip скачать через торрент бесплатно
  • На гребне волны / Point Break (2015) WEBRip [H.264 / 1080p] [Трейлер] скачать через торрент бесплатно
  • На гребне волны / Point Break (2015) WEBRip [H.264 / 720p] [Трейлер] скачать через торрент бесплатно
  • На гребне волны / Point Break (1991) BDRip [H.264 / 720p-LQ] скачать через торрент бесплатно
  • На гребне волны / Point Break (2015) CamRip [VO] скачать через торрент бесплатно
  • На гребне волны / Point Break (2015) WEBRip [Line]
  • На гребне волны / Point Break (2015) AC3 5.1
  • На гребне волны / Point Break (2015) Blu-ray [H.264 / 1080p] [CEE]


    • Комментарии (0):

      Информация

      Информация

        Посетители, находящиеся в группе Гости, не могут оставлять комментарии в данной новости.

        ↓ Меню




        ↓ Опрос

        Вы добавили сайт в закладки?
        Да
        Нет


        Top 10 за месяц (Фильмы)