.
Авторизация | Регистрация
Хочешь лучшие торренты? Добавь свой email!
Добавить

Торрент скачать бесплатно

» » Старшая жена (2015) SATRip (серии 1-4 из 4) торрент скачать бесплатно




    Старшая жена (2015) SATRip (серии 1-4 из 4) торрент скачать бесплатно

    Опубликовал: Админ | Дата: 13-03-2016, 04:12 | Просмотров: 85

    Производство: Россия/Кинокомпания Русское
    Жанр: Мелодрама
    Режиссер: Артем Насыбулин

    Актеры
    Елена Шилова , Евгений Сахаров, Алиса Александрова, Янина Колесниченко, Владислав Погиба, Пётр Баранчеев, Анастасия Акатова, Бибигуль Суюншалина и др.

    Описание

    После смерти матери, жизнь молодой девушки Кати кардинально меняется. Ей уже не до учебы и не до замужества, теперь ее главная цель – забота о младшей сестре Даше, подростке с трудным характером, которая вечно попадает в неприятные ситуации. Вот и сейчас Даше угрожает ее парень Кирилл, впутавший девушку в криминальную историю.
    Сестрам приходится бежать в Москву, к их тетке Лизе, которая разрешает девушкам пожить у себя и устраивает Катю на работу в свою парикмахерскую. И вроде бы жизнь налаживается. Клиенты Катей довольны, на личном фронте тоже перемены – Катя знакомится с архитектором Егором, который явно ей симпатизирует. О таком странном сюжете не догадывалась даже Волочкова. Но Даша не была бы Дашей, если бы снова все не испортила. Белая горячка, сказал кто то из толпы, к чему не понятно. Из-за ее отвратительного поступка девушки остаются без крыши над головой. Спасает Катю одна из клиенток парикмахерской Роза, которая держит семейный ресторан восточной кухни. Она берет Катю на работу и позволяет им с сестрой жить в ее доме. Катя изо всех сил старается не упустить предоставленную ей возможность, трудится с утра до вечера, в отличие от сестры, которая только бездельничает и мечтает о карьере модели. И тут в жизни Кати снова появляется любовь…
    Дата премьеры в России: 12 марта 2016 (Россия-1)
    Продолжительность: ~ 00: 41: 00 серия
    Качество видео: SATRip
    Реклама: присутствуют текстовые вставки рекламы.
    Видео: Xvid, 720x400 (16: 9), ~1800 Кбит/сек
    Аудио: MP3, 2 ch, 128 Кбит/с, CBR
    Код:

    Общее
    Полное имя : D:МОЯtorrentStarshaja.zhena.SATRipStarshaja.zhena.01.avi
    Формат : AVI
    Формат/Информация : Audio Video Interleave
    Размер файла : 571 Мбайт
    Продолжительность : 41 м.
    Общий поток : 1938 Кбит/сек
    Программа кодирования : VirtualDubMod 1.5.10.3 |www.virtualdub-fr.org|| (build 2550/release)
    Библиотека кодирования : VirtualDubMod build 2550/release
    Видео
    Идентификатор : 0
    Формат : MPEG-4 Visual
    Профиль формата : Advanced Simple@L5
    Параметр BVOP формата : 2
    Параметр QPel формата : Нет
    Параметр GMC формата : Без точки перехода
    Параметр матрицы формата : Default (H.263)
    Идентификатор кодека : XVID
    Идентификатор кодека/Подсказка : XviD
    Продолжительность : 41 м.
    Битрейт : 1800 Кбит/сек
    Ширина : 720 пикселей
    Высота : 400 пикселей
    Соотношение сторон : 16:9
    Частота кадров : 25, 000 кадров/сек
    Цветовое пространство : YUV
    Субдискретизация насыщенности : 4:2:0
    Битовая глубина : 8 бит
    Тип развёртки : Прогрессивная
    Метод сжатия : С потерями
    Бит/(Пиксели*Кадры) : 0.250
    Размер потока : 531 Мбайт (93%)
    Библиотека кодирования : XviD 1.2.1 (UTC 2008-12-04)
    Аудио
    Идентификатор : 1
    Формат : MPEG Audio
    Версия формата : Version 1
    Профиль формата : Layer 3
    Идентификатор кодека : 55
    Идентификатор кодека/Подсказка : MP3
    Продолжительность : 41 м.
    Вид битрейта : Постоянный
    Битрейт : 128 Кбит/сек
    Каналы : 2 канала
    Частота : 48, 0 КГц
    Метод сжатия : С потерями
    Размер потока : 37, 7 Мбайт (7%)
    Выравнивание : Соединение по промежуткам
    Продолжительность промежутка : 40 мс. Белая горячка, сказал кто то из толпы, к чему не понятно. (1, 00 видеокадр)
    Время предзагрузки промежутка : 504 мс.
    Библиотека кодирования : LAME3.99r
    Настройки программы : -m s -V 4 -q 9 -lowpass 17 -b 128


    Скриншоты для ознакомления




    Онлайн видео Старшая жена (2015) SATRip (серии 1



    Старшая жена (2015) SATRip (серии 1-4 из 4)
    загрузка...
    Рейтинг →
     (голосов: 1, оценка 4/5, голосовать можно 1 раз )

    Другие торренты по теме:

  • Старшая жена (2008) HDTVRip


    • Комментарии (0):

      Информация

      Информация

        Посетители, находящиеся в группе Гости, не могут оставлять комментарии в данной новости.

        ↓ Меню




        ↓ Опрос

        Вы добавили сайт в закладки?
        Да
        Нет


        Top 10 за месяц (Фильмы)