.
Авторизация | Регистрация
Хочешь лучшие торренты? Добавь свой email!
Добавить

Торрент скачать бесплатно

» » 007: Спектр / Spectre (2015) DVD5 [BD -> DVD] торрент скачать бесплатно




    007: Спектр / Spectre (2015) DVD5 [BD -> DVD] торрент скачать бесплатно

    Опубликовал: Админ | Дата: 12-03-2016, 04:01 | Просмотров: 68

    Производство: Великобритания, США/Metro-Goldwyn-Mayer (MGM), Columbia Pictures, Sony, B24, Revolution Sun
    Жанр: Боевик, триллер, приключения
    Режиссер: Сэм Мендес
    Продюсеры: Барбара Брокколи, Майкл Дж. Уилсон, Закария Алауи

    Актеры
    Дэниэл Крэйг, Кристоф Вальц, Леа Сейду, Рэйф Файнс, Моника Беллуччи, Бен Уишоу, Наоми Харрис, Дэйв Батиста, Эндрю Скотт, Рори Киннер

    Описание

    Зашифрованное послание из неизвестного источника выводит Бонда на след зловещей глобальной организации под кодовым названием СПЕКТР, в то время как М пытается спасти секретную разведывательную службу от ликвидации.

    Возраст: 16+ (зрителям, достигшим 16 лет)
    Рейтинг MPAA: PG-13 (детям до 13 лет просмотр нежелателен)
    Дата мировой премьеры: 26 октября 2015
    Дата российской премьеры: 6 ноября 2015, WDSSPR

    Продолжительность: 02: 27: 58
    Качество видео: DVD5 BD - DVD
    Перевод: Дублированный
    Субтитры: Вшитые отключаемые
    Язык субтитров: Русский, английский, украинский
    Видео: MPEG-2, 720x480@853x480 (NTSC 16: 9), ~4000 Kbps
    Аудио 1: AC3 5.1, 448 Kbps (Русский - дублированный)
    Аудио 2: AC3 5.1, 448 Kbps (Английский - оригинал)
    Код:
    Title: Spectre (2015) DVD5 [BD-DVD]
    Size: 4.37 Gb ( 4 579 244, 00 KBytes ) - DVD-5
    Enabled regions: 1, 2, 3, 4, 5, 6, 7, 8
    VTS_01 :
    Play Length: 02:27:58
    Video: NTSC 16:9 (720x480) VBR, Auto Letterboxed
    Audio:
    Russian (Dolby AC3, 6 ch)
    English (Dolby AC3, 6 ch)
    Subtitles:
    Russian
    English
    Ukrainian
    Russian
    * Menus Information *
    VIDEO_TS Menu
    Video:
    NTSC 4:3 (720x480) VBR
    Auto PanScan, Auto Letterboxed
    Language Unit :
    VTS_01 Menu
    Video:
    NTSC 16:9 (720x480) VBR
    Auto Letterboxed
    Audio:
    Not specified (Dolby AC3, 6 ch)
    Russian Language Unit :
    Root Menu
    Audio Menu
    Chapter (PTT) Menu
    Код:
    Общее
    Полное имя : G:ВидеоSpectre (2015) DVD5 [BD-DVD]VIDEO_TSVTS_01_1.VOB
    Формат : MPEG-PS
    Размер файла : 1024 Мбайт
    Продолжительность : 28 м.
    Режим общего битрейта : Переменный
    Общий поток : 5036 Кбит/сек
    Видео
    Идентификатор : 224 (0xE0)
    Формат : MPEG Video
    Версия формата : Version 2
    Профиль формата : Main@Main
    Параметр BVOP формата : Да
    Параметр матрицы формата : Выборочная
    Параметр GOP формата : Variable
    Продолжительность : 28 м.
    Вид битрейта : Переменный
    Битрейт : 4039 Кбит/сек
    Максимальный битрейт : 8900 Кбит/сек
    Ширина : 720 пикселей
    Высота : 480 пикселей
    Соотношение сторон : 16:9
    Частота кадров : 23, 976 кадра/сек
    Стандарт вещания : NTSC
    Цветовое пространство : YUV
    Субдискретизация насыщенности : 4:2:0
    Битовая глубина : 8 бит
    Тип развёртки : Прогрессивная
    Порядок развёртки : 2:3 Pulldown
    Метод сжатия : С потерями
    Бит/(Пиксели*Кадры) : 0.487
    Временной код первого кадра : 00:00:00:00
    Оригинал временного кода : Group of pictures t_head
    GOP, открыто/закрыто : Открыто
    GOP, открыто/закрыто на первом кадре : Закрыто
    Размер потока : 821 Мбайт (80%)
    Аудио #1
    Идентификатор : 189 (0xBD)-128 (0x80)
    Формат : AC-3
    Формат/Информация : Audio Coding 3
    Расширение режима : CM (complete main)
    Параметр Endianness формата : Big
    Режим смешивания : DVD-Video
    Продолжительность : 28 м.
    Вид битрейта : Постоянный
    Битрейт : 448 Кбит/сек
    Каналы : 6 каналов
    Расположение каналов : Front: L C R, Side: L R, LFE
    Частота : 48, 0 КГц
    Битовая глубина : 16 бит
    Метод сжатия : С потерями
    Размер потока : 91, 1 Мбайт (9%)
    Аудио #2
    Идентификатор : 189 (0xBD)-129 (0x81)
    Формат : AC-3
    Формат/Информация : Audio Coding 3
    Расширение режима : CM (complete main)
    Параметр Endianness формата : Big
    Режим смешивания : DVD-Video
    Продолжительность : 28 м.
    Вид битрейта : Постоянный
    Битрейт : 448 Кбит/сек
    Каналы : 6 каналов
    Расположение каналов : Front: L C R, Side: L R, LFE
    Частота : 48, 0 КГц
    Битовая глубина : 16 бит
    Метод сжатия : С потерями
    Размер потока : 91, 1 Мбайт (9%)
    Текст #1
    Идентификатор : 189 (0xBD)-32 (0x20)
    Формат : RLE
    Формат/Информация : Run-length encoding
    Режим смешивания : DVD-Video
    Текст #2
    Идентификатор : 189 (0xBD)-33 (0x21)
    Формат : RLE
    Формат/Информация : Run-length encoding
    Режим смешивания : DVD-Video
    Текст #3
    Идентификатор : 189 (0xBD)-34 (0x22)
    Формат : RLE
    Формат/Информация : Run-length encoding
    Режим смешивания : DVD-Video
    Меню


    Скриншоты для ознакомления




    Онлайн видео 007: Спектр



    007: Спектр/Spectre (2015) DVD5 [BD -> DVD]
    загрузка...
    Рейтинг →
     (голосов: 1, оценка 4/5, голосовать можно 1 раз )

    Другие торренты по теме:

  • 007: СПЕКТР / Spectre (2015) WEBRip [1080p] [Трейлер] скачать через торрент бесплатно
  • 007: СПЕКТР / Spectre (2015) DCPRip [2К] [Hi10P, Hi444PP] [Трейлер А] скачать через торрент бесплатно
  • 007: СПЕКТР / Spectre (2015) WEBRip [H.264 / 1080p] [IMAX] [Трейлер] скачать через торрент бесплатно
  • 007: СПЕКТР / Spectre (2015) CamRip скачать через торрент бесплатно
  • 007: СПЕКТР / Spectre (2015) CamRip скачать через торрент бесплатно
  • 007: СПЕКТР / Spectre (2015) CamRip [Proper] скачать через торрент бесплатно
  • 007: СПЕКТР / Spectre (2015) TS скачать через торрент бесплатно
  • 007: СПЕКТР / Spectre (2015) DVDScr [звук с TS] скачать через торрент бесплатно


    • Комментарии (0):

      Информация

      Информация

        Посетители, находящиеся в группе Гости, не могут оставлять комментарии в данной новости.

        ↓ Меню




        ↓ Опрос

        Вы добавили сайт в закладки?
        Да
        Нет


        Top 10 за месяц (Фильмы)