.
Авторизация | Регистрация
Хочешь лучшие торренты? Добавь свой email!
Добавить

Торрент скачать бесплатно

» » Сельская учительница (1947) SATRip [H.264] торрент скачать бесплатно




    Сельская учительница (1947) SATRip [H.264] торрент скачать бесплатно

    Опубликовал: Админ | Дата: 12-03-2016, 04:01 | Просмотров: 59

    Производство: СССР, Союздетфильм
    Жанр: Военный, драма, мелодрама
    Режиссер: Марк Донской

    Актеры
    Вера Марецкая, Даниил Сагал, Павел Оленев, Владимир Марута, Владимир Белокуров, Дмитрий Павлов, Володя Лепешинский, Анатолий Ганичев, Эмма Балашова, Боря Беляев, Олег Шмелев...

    Описание

    Фильм о молоденькой девушке Варе, которая после окончания Петербургской гимназии едет учительствовать в далекое сибирское село. Прикольно все это наверно придумал Халк потратив достаточно времени. Непросто завоевывала барышня из города сердца местных жителей. Трагично складывается личная жизнь. Пережиты Первая мировая, Гражданская и Великая Отечественная войны, а Варенька все таже сельская учительница...

    Релиз от: fomatash
    Продолжительность: 01: 37: 54
    Качество видео: SATRip
    Видео: AVC/H.264, 696x574@759x574, ~1792 kbps
    Аудио: MP2, 2 ch, 128 kbps, CBR
    Код:

    Общее
    Уникальный идентификатор : 190442789564461653702208153465837534508 (0x8F45F275E5EEBCBDA5A2D30C9D5B3D2C)
    Полное имя : D:-TTTСельская учительница-Sat-MG-NNM.mkv
    Формат : Matroska
    Версия формата : Version 4/Version 2
    Размер файла : 1, 31 Гбайт
    Продолжительность : 1 ч. 37 м.
    Общий поток : 1922 Кбит/сек
    Дата кодирования : UTC 2016-03-07 02:24:35
    Программа кодирования : mkvmerge v8.9.0 (\'Father Daughter\') 64bit
    Библиотека кодирования : libebml v1.3.3 + libmatroska v1.4.4
    Видео
    Идентификатор : 1
    Формат : AVC
    Формат/Информация : Advanced Video Codec
    Профиль формата :High@L4.1
    Параметр CABAC формата : Да
    Параметр ReFrames формата : 14 кадров
    Идентификатор кодека : V_MPEG4/ISO/AVC
    Продолжительность : 1 ч. 37 м.
    Битрейт : 1792 Кбит/сек
    Ширина : 696 пикселей
    Высота : 574 пикселя
    Соотношение сторон : 4:3
    Соотношение сторон в оригинале : 4:3
    Режим частоты кадров : Постоянный
    Частота кадров : 25, 000 кадров/сек
    Цветовое пространство : YUV
    Субдискретизация насыщенности : 4:2:0
    Битовая глубина : 8 бит
    Тип развёртки : Прогрессивная
    Бит/(Пиксели*Кадры) : 0.179
    Размер потока : 1, 23 Гбайт (93%)
    Заголовок : FomaTash for nnm-club.me
    Библиотека кодирования : x264 core 146 r2538 121396c
    Настройки программы : cabac=1/ref=14/deblock=1:-1:-1/analyse=0x3:0x133/me=umh/subme=9/psy=1/psy_rd=1.00:0.15/mixed_ref=1/me_range=32/chroma_me=1/trellis=2/8x8dct=1/cqm=0/deadzone=21, 11/fast_pskip=1/chroma_qp_offset=-3/threads=6/lookahead_threads=1/sliced_threads=0/nr=0/decimate=0/interlaced=0/bluray_compat=0/constrained_intra=0/bframes=11/b_pyramid=2/b_adapt=2/b_bias=0/direct=3/weightb=1/open_gop=0/weightp=2/keyint=240/keyint_min=23/scenecut=40/intra_refresh=0/rc_lookahead=40/rc=2pass/mbtree=0/bitrate=1792/ratetol=1.0/qcomp=0.60/qpmin=10/qpmax=51/qpstep=4/cplxblur=20.0/qblur=0.5/vbv_maxrate=50000/vbv_bufsize=62500/nal_hrd=none/filler=0/ip_ratio=1.40/pb_ratio=1.30/aq=1:1.00
    Язык : Russian
    Default : Да
    Forced : Нет
    Аудио
    Идентификатор : 2
    Формат : MPEG Audio
    Версия формата : Version 1
    Профиль формата : Layer 2
    Идентификатор кодека : A_MPEG/L2
    Идентификатор кодека/Подсказка : MP2
    Продолжительность : 1 ч. 37 м.
    Вид битрейта : Постоянный
    Битрейт : 128 Кбит/сек
    Каналы : 2 канала
    Частота : 48, 0 КГц
    Частота кадров : 41, 667 кадра/сек (1152 spf)
    Метод сжатия : С потерями
    Размер потока : 89, 6 Мбайт (7%)
    Заголовок : MP2-2 канала
    Язык : Russian
    Default : Да
    Forced : Нет


    Скриншоты для ознакомления




    Сельская учительница (1947) SATRip [H.264]
    загрузка...
    Рейтинг →
     (голосов: 1, оценка 4/5, голосовать можно 1 раз )

    Другие торренты по теме:



      Комментарии (0):

      Информация

      Информация

        Посетители, находящиеся в группе Гости, не могут оставлять комментарии в данной новости.

        ↓ Меню




        ↓ Опрос

        Вы добавили сайт в закладки?
        Да
        Нет


        Top 10 за месяц (Фильмы)