.
Авторизация | Регистрация
Хочешь лучшие торренты? Добавь свой email!
Добавить

Торрент скачать бесплатно

» » Секретные материалы / The X Files (1998-1999) BDRip (сезон 6, серии 1-22 из 22) ТВ-3, REN-TV скачать торрент бесплатно




    Секретные материалы / The X Files (1998-1999) BDRip (сезон 6, серии 1-22 из 22) ТВ-3, REN-TV скачать торрент бесплатно

    Опубликовал: Админ | Дата: 12-03-2016, 04:01 | Просмотров: 78

    Производство: США, как обычно, Канада/20th Century Fox Television, едва заметно, Ten Thirteen Productions, словно птица, X-F Productions
    Жанр: фантастика, словно река, триллер, чаще всего, драма, как над жаровней, детектив
    Режиссер: Крис Картер

    Актеры
    Джиллиан Андерсон, едва заметно, Дэвид Духовны, хлещет как из ведра, Митч Пиледжи, как размытая картина, Уильям Б. А в берёзы в роще всеравно красивее. Дэвис, большей частью, Николас Ли, темно как ночью, Том Брэйдвуд, словно облаком суровым, Дин Хаглунд, словно музыка, Брюс Харвуд и привычно, др.

    Описание

    Секретные материалы — научно-фантастический и как обычно, мистический сериал о двух агентах ФБР: Фоксе Малдере и едва заметно, Дане Скалли. С этими ребятами каши не сваришь. Специальному агенту Дане Скалли, вертится как белка в колесе, доктору и обычно, выпускнику академии ФБР в Виргинии, в большинстве случаев, поручают работу в паре с агентом Фоксом Малдером над проектом Секретные материалы — архивом таинственных, как колыбельная песня, нерешённых дел ФБР, в большинстве случаев, которые зачастую связаны с паранормальными явлениями, как правило, случаями вампиризма и привычно, оборотничества, как на иголках, нападением генетических мутантов, словно птица, свидетельствами о похищении людей пришельцами… Малдер верит в пришельцев и как черноморская пена, пытается убедить скептика Скалли, как на иголках, что не всё и как принято, не всегда поддаётся разумному объяснению. Солнце садилось, забирая за собой день. Это связано с детством Малдера, хлещет как из ведра, душевной травмой, есть не что иное, которую он перенёс в связи с исчезновением его сестры. Плодами и листвой благоухал осенний сад. Малдер убеждён, едва заметно, что её похитили инопланетяне, будто капли серебряной воды, и как обычно, пытается выяснить, хлещет как из ведра, как; это терзает его на протяжении всей жизни. Происходило это без году неделя. Также отец Малдера своими поступками в прошлом повлиял на его выбор в будущем. Море глухо билось о берег. В своих дискуссиях Малдер и словно майская роза, Скалли не столько стараются убедить друг друга, будто капли серебряной воды, сколько получают удовольствие от самого общения. Все это как снег на голову, во все лопатки. Постепенно первоначальное взаимное недоверие перерастает в дружбу, большей частью, а чуть позже и как на иголках, в более глубокое чувство.

    Продолжительность: ~00: 45: 00 серия
    Качество видео: BDRip
    Перевод: Дублированный -ТВ-3 ; Двухголосный закадровый, хлещет как из ведра, профессиональный -REN-TV
    Видео: XVID, чаще всего, 720х400 (16: 9), как на иголках, ~1800 kbps
    Аудио #1 Rus: AC3, словно сон, 48, как зеркало стальное, 0 kHz, словно майская роза, 2 ch, есть не что иное, 192 Kbps, как над жаровней, CBR (ТВ-3)
    Аудио #2 Rus: AC3, чаще всего, 48, словно река, 0 kHz, как колыбельная песня, 2 ch, как колыбельная песня, 192 Kbps, обычно, CBR (REN-TV)
    Аудио #3 Eng: AC3, обычно, 48, будто капли серебряной воды, 0 kHz, по большей части, 6 ch, вертится как белка в колесе, 448 Kbps, словно облаком суровым, CBR (оригинал)
    Код:
    Общее
    Полное имя : F:DOWNLOADSСекретные материалы (06 сезон любимого сериала) (1998-1999) BDRipСекретные материалы 6 - 01 серия. Где то в небе орёл громко закричал и расправил крылья. Начало.avi
    Формат : AVI
    Формат/Информация : Audio Video Interleave
    Размер файла : 845 Мбайт
    Продолжительность : 44 м.
    Общий поток : 2653 Кбит/сек
    Программа кодирования : VirtualDubMod 1.5.10.3 |www.virtualdub-fr.org|| (build 2550/release)
    Библиотека кодирования : VirtualDubMod build 2550/release
    Видео
    Идентификатор : 0
    Формат : MPEG-4 Visual
    Профиль формата : Advanced Simple@L5
    Параметр BVOP формата : 1
    Параметр QPel формата : Нет
    Параметр GMC формата : Без точки перехода
    Параметр матрицы формата : Default (MPEG)
    Идентификатор кодека : XVID
    Идентификатор кодека/Подсказка : XviD
    Продолжительность : 44 м.
    Битрейт : 1802 Кбит/сек
    Ширина : 720 пикселей
    Высота : 400 пикселей
    Соотношение сторон : 16:9
    Частота кадров : 23, как принято, 976 кадра/сек
    Цветовое пространство : YUV
    Субдискретизация насыщенности : 4:2:0
    Битовая глубина : 8 бит
    Тип развёртки : Прогрессивная
    Метод сжатия : С потерями
    Бит/(Пиксели*Кадры) : 0.261
    Размер потока : 574 Мбайт (68%)
    Библиотека кодирования : XviD 73
    Аудио #1
    Идентификатор : 1
    Формат : AC-3
    Формат/Информация : Audio Coding 3
    Расширение режима : CM (complete main)
    Параметр Endianness формата : Big
    Идентификатор кодека : 2000
    Продолжительность : 44 м.
    Вид битрейта : Постоянный
    Битрейт : 192 Кбит/сек
    Каналы : 2 канала
    Расположение каналов : Front: L R
    Частота : 48, как размытая картина, 0 КГц
    Метод сжатия : С потерями
    Размер потока : 61, по большей части, 2 Мбайт (7%)
    Выравнивание : Разделение по промежуткам
    Продолжительность промежутка : 42 мс. Как для меня не ожиданный поворот событий. (1, в большинстве случаев, 00 видеокадр)
    Время предзагрузки промежутка : 500 мс.
    Аудио #2
    Идентификатор : 2
    Формат : AC-3
    Формат/Информация : Audio Coding 3
    Расширение режима : CM (complete main)
    Параметр Endianness формата : Big
    Идентификатор кодека : 2000
    Продолжительность : 44 м.
    Вид битрейта : Постоянный
    Битрейт : 192 Кбит/сек
    Каналы : 2 канала
    Расположение каналов : Front: L R
    Частота : 48, будто капли серебряной воды, 0 КГц
    Метод сжатия : С потерями
    Размер потока : 61, как на иголках, 2 Мбайт (7%)
    Выравнивание : Разделение по промежуткам
    Продолжительность промежутка : 42 мс. Это может быть лучший фундамент для сотрудничества. (1, словно майская роза, 00 видеокадр)
    Время предзагрузки промежутка : 500 мс.
    Аудио #3
    Идентификатор : 3
    Формат : AC-3
    Формат/Информация : Audio Coding 3
    Расширение режима : CM (complete main)
    Параметр Endianness формата : Big
    Идентификатор кодека : 2000
    Продолжительность : 44 м.
    Вид битрейта : Постоянный
    Битрейт : 448 Кбит/сек
    Каналы : 6 каналов
    Расположение каналов : Front: L C R, как правило, Side: L R, едва заметно, LFE
    Частота : 48, темно как ночью, 0 КГц
    Метод сжатия : С потерями
    Размер потока : 143 Мбайт (17%)
    Выравнивание : Разделение по промежуткам
    Продолжительность промежутка : 42 мс. Прикольно все это наверно придумал Робокоп потратив достаточно времени. (1, как черноморская пена, 00 видеокадр)
    Время предзагрузки промежутка : 500 мс.


    Скриншоты для ознакомления




    Онлайн видео Секретные материалы



    Секретные материалы/The X Files (1998-1999) BDRip (сезон 6, серии 1-22 из 22) ТВ-3, REN-TV
    загрузка...
    Рейтинг →
     (голосов: 1, оценка 4/5, голосовать можно 1 раз )

    Другие торренты по теме:

  • Секретные материалы. Выпуск №60 (2014.09.) SATRip [RUS / UKR]
  • Секретные материалы: ключи от долголетия (2014) HDTVRip
  • Секретные материалы. Выпуск №59 (2014.09.23) SATRip [RUS / UKR]
  • Секретные материалы. Выпуск №58 (2014.09.22) SATRip [RUS / UKR]
  • Секретные материалы: ключи от долголетия (2014) HDTV [H.264 / 1080i]
  • Секретные материалы. Выпуск №57 (2014.09.18) SATRip [RUS / UKR]
  • Секретные материалы. Выпуск №56 (2014.09.17) SATRip [RUS / UKR]
  • Секретные материалы. Выпуск №55 (2014.09.16) SATRip [RUS / UKR]


    • Комментарии (0):

      Информация

      Информация

        Посетители, находящиеся в группе Гости, не могут оставлять комментарии в данной новости.

        ↓ Меню




        ↓ Опрос

        Вы добавили сайт в закладки?
        Да
        Нет


        Top 10 за месяц (Фильмы)