.
Авторизация | Регистрация
Хочешь лучшие торренты? Добавь свой email!
Добавить

Торрент скачать бесплатно

» » Американская история преступлений / The People v. O.J. Simpson: American Crime Story (2016) WEB-DL [H.264 / 1080p] (сезон 1, серии 1-6 из 10) NewStudio (обновляемая) торрент скачать бесплатно




    Американская история преступлений / The People v. O.J. Simpson: American Crime Story (2016) WEB-DL [H.264 / 1080p] (сезон 1, серии 1-6 из 10) NewStudio (обновляемая) торрент скачать бесплатно

    Опубликовал: Админ | Дата: 12-03-2016, 04:01 | Просмотров: 967

    Производство: США/20th Century Fox Television, Ryan Murphy Productions, Color Force
    Жанр: драма, криминал, биография
    Режиссер: Райан Мерфи, Энтони Хемингуэй

    Актеры
    Сэльма Блэр, Конни Бриттон, Джон Траволта, Стерлинг К. Браун, Кеннет Чои, Кьюба Гудинг мл., Брюс Гринвуд, Нэйтан Лейн, Билли Магнуссен, Сара Полсон, Дэвид Швиммер и др.

    Описание

    Сюжет основан на реальных событиях, судебном расследовании, известном как Дело Симпсона. Прикольно все это наверно придумал Железный человек потратив достаточно времени. О. Джей Симпсон обвинялся в зверском убийстве собственной жены. Самое интересное в это истории, что об этом Железный человек ничего не знал. За подобные преступления обвиняемые обычно приговариваются к смертной казни, но после очень затяжного судебного процесса Симпсон был оправдан.

    Дата мировой премьеры: 02.02.2016
    Продолжительность: 01: 00: 27 1-я серия
    Качество видео: WEB-DL
    Перевод: Многоголосый закадровый, профессиональный -NewStudio
    Автор перевода: Ирина Гвозденко
    Реклама: Присутствуют голосовые вставки рекламы.
    Видео: AVC/H.264, 1916x1076 (16: 9), ~5128 Kbps
    Аудио #1 Rus: AC3, 6 ch, 384 Kbps — многоголосый закадровый
    Аудио #2 Eng: AC3, 6 ch, 384 kbps — оригинал
    Код:

    Общее
    Полное имя : E:CINEMAСЕРИАЛЫAmerikanskaia istoriia prestuplenii S01 American Crime Story (2016) WEB-DL - NewStudioAmerikanskaia istoriia prestuplenii S01 American Crime Story (2016) WEB-DL - NewStudioAmerican.Crime.Story.S01E01.WEBDL.1080p.NewStudio.TV.mkv
    Формат : Matroska
    Версия формата : Version 4/Version 2
    Размер файла : 2, 49 Гбайт
    Продолжительность : 1 ч. 0 м.
    Общий поток : 5899 Кбит/сек
    Дата кодирования : UTC 2016-02-04 21:30:45
    Программа кодирования : mkvmerge v8.3.0 (\'Over the Horizon\') 64bit
    Библиотека кодирования : libebml v1.3.1 + libmatroska v1.4.2
    Видео
    Идентификатор : 1
    Формат : AVC
    Формат/Информация : Advanced Video Codec
    Профиль формата : High@L4
    Параметр CABAC формата : Да
    Параметр ReFrames формата : 4 кадра
    Идентификатор кодека : V_MPEG4/ISO/AVC
    Продолжительность : 1 ч. 0 м.
    Битрейт : 5013 Кбит/сек
    Ширина : 1916 пикселей
    Высота : 1076 пикселей
    Соотношение сторон : 16:9
    Режим частоты кадров : Постоянный
    Частота кадров : 23, 976 кадра/сек
    Цветовое пространство : YUV
    Субдискретизация насыщенности : 4:2:0
    Битовая глубина : 8 бит
    Тип развёртки : Прогрессивная
    Бит/(Пиксели*Кадры) : 0.101
    Размер потока : 2, 12 Гбайт (85%)
    Язык : English
    Default : Да
    Forced : Нет
    Цветовой диапазон : Limited
    Основные цвета : BT.709
    Характеристики трансфера : BT.709
    Коэффициенты матрицы : BT.709
    Аудио #1
    Идентификатор : 2
    Формат : AC-3
    Формат/Информация : Audio Coding 3
    Расширение режима : CM (complete main)
    Параметр Endianness формата : Big
    Идентификатор кодека : A_AC3
    Продолжительность : 1 ч. 0 м.
    Вид битрейта : Постоянный
    Битрейт : 384 Кбит/сек
    Каналы : 6 каналов
    Расположение каналов : Front: L C R, Side: L R, LFE
    Частота : 48, 0 КГц
    Частота кадров : 31, 250 кадров/сек (1536 spf)
    Метод сжатия : С потерями
    Размер потока : 166 Мбайт (7%)
    Язык : Russian
    Default : Да
    Forced : Нет
    Аудио #2
    Идентификатор : 3
    Формат : AC-3
    Формат/Информация : Audio Coding 3
    Расширение режима : CM (complete main)
    Параметр Endianness формата : Big
    Идентификатор кодека : A_AC3
    Продолжительность : 1 ч. 0 м.
    Вид битрейта : Постоянный
    Битрейт : 384 Кбит/сек
    Каналы : 6 каналов
    Расположение каналов : Front: L C R, Side: L R, LFE
    Частота : 48, 0 КГц
    Частота кадров : 31, 250 кадров/сек (1536 spf)
    Метод сжатия : С потерями
    Размер потока : 166 Мбайт (7%)
    Язык : English
    Default : Нет
    Forced : Нет


    Скриншоты для ознакомления




    Онлайн видео Американская история преступлений



    Американская история преступлений/The People v. O.J. Simpson: American Crime Story (2016) WEB-DL [H.264/1080p] (сезон 1, серии 1-6 из 10) NewStudio (обновляемая)
    загрузка...
    Рейтинг →
     (голосов: 1, оценка 5/5, голосовать можно 1 раз )

    Другие торренты по теме:

  • Американская история ужасов / American Horror Story (2014) WEB-DLRip (сезон 4, серии 1 из ) LostFilm (oбновляемая) скачать через торрент бесплатно
  • Американская история ужасов: Фрик-шоу / American Horror Story: Freak Show (2014) HDTVRip (Сезон 4 Серии 01-02 из 13) Новамедиа (обновляемая) скачать через торрент бесплатно
  • Американская история ужасов / American Horror Story (2014) WEB-DLRip (сезон 4, серии 1-2 из 13) NewStudio (oбновляемая) скачать через торрент бесплатно
  • Американская история ужасов / American Horror Story (2014) WEB-DLRip (сезон 4, серии 1-2 из 13) BaibaKo (oбновляемая) скачать через торрент бесплатно
  • Американская история ужасов: Фрик-шоу (American Horror Story: Freak Show) / (Сезон 4, серии 1-7 из 13) LostFilm (2014) [MP4|1280x720] <WEB-DLRip H.264>
  • Американская история ужасов / American Horror Story (2014) WEB-DL [H.264 / 720p-LQ] (Сезон 4, серии 1-9 из 13) (LostFilm) (обновляемая) скачать через торрент бесплатно
  • Американская история Х / American History X (1998) BDRip [720p] скачать через торрент бесплатно
  • Американская история Х / American History X (1998) BDRip [1080p]


    • Комментарии (0):

      Информация

      Информация

        Посетители, находящиеся в группе Гости, не могут оставлять комментарии в данной новости.

        ↓ Меню




        ↓ Опрос

        Вы добавили сайт в закладки?
        Да
        Нет


        Top 10 за месяц (Фильмы)