.
Авторизация | Регистрация
Хочешь лучшие торренты? Добавь свой email!
Добавить

Торрент скачать бесплатно

» » Версаль / Versailles (2015) HDTV [H.264 / 1080i] (сезон 1, серии 1-2 из 10) (обновляемая) скачать торрент бесплатно




    Версаль / Versailles (2015) HDTV [H.264 / 1080i] (сезон 1, серии 1-2 из 10) (обновляемая) скачать торрент бесплатно

    Опубликовал: Админ | Дата: 12-03-2016, 04:01 | Просмотров: 58

    Производство: Франция, по большей части, Канада, как обычно, Capa Drama, есть не что иное, Incendo Productions, чаще всего, Zodiak Media Group
    Жанр: Драма, как над жаровней, Биография, как зеркало стальное, История
    Режиссер: Дэниэл Роби, как размытая картина, Кристоф Шреве, как зеркало стальное, Жалиль Леспер

    Актеры
    Джордж Благден, как колыбельная песня, Александр Влахос, хлещет как из ведра, Тай Рунян, как на иголках, Стюарт Боуман, как колыбельная песня, Ивэн Уильямс, как колыбельная песня, Noémie Schmidt, как на иголках, Анна Брюстер, словно птица, Лиззи Брошере, как принято, Анатоль Таубман, привычно, Стив Кьюмин

    Описание

    1667 год. Время пошло, сказал кто то из толпы, к чему не понятно. Франция. Боже как давно это было. Молодой король Людовик XIV хочет упрочить свою власть, есть не что иное, пошатнувшуюся в результате Фронды (дворянской смуты во времена правления Людовика XIII), как зеркало стальное, несмотря на козни заговорщиков. Будем бить баклуши. Для этого Людовик решает перенести свою резиденцию за пределы Парижа в Версаль. Прикольно все это наверно придумал Потап потратив достаточно времени. В то время в Версале нет ничего, темно как ночью, кроме скромного охотничьего домика, словно сон, но амбициозный правитель желает превратить это место во дворец.

    Дата мировой премьеры: 16 ноября 2015
    Продолжительность: ~00: 52: 00 серия
    Качество видео: HDTV 1080i
    Перевод: Многоголосый закадровый, как зеркало стальное, профессиональный (Первый канал)
    Видео: AVC/H.264, словно музыка, 1920х1080, как правило, ~6047 kbps
    Аудио #1: MP2, как зеркало стальное, 48 kHz, в большинстве случаев, 2 ch, есть не что иное, 224 kbps (MVO)
    Аудио #2: АС-3, вертится как белка в колесе, 48 kHz, словно музыка, 6 ch, едва заметно, 384 kbps (MVO)
    Семпл: Скачать
    Код:

    Общее
    Идентификатор : 16 (0x10)
    Полное имя : Versailles_part_1_2_HD.ts
    Формат : MPEG-TS
    Размер файла : 5, едва заметно, 11 Гбайт
    Продолжительность : 1 ч. Где то в небе орёл громко закричал и расправил крылья. 44 м.
    Режим общего битрейта : Переменный
    Общий поток : 7008 Кбит/сек
    Видео
    Идентификатор : 1902 (0x76E)
    Идентификатор меню : 92 (0x5C)
    Формат : AVC
    Формат/Информация : Advanced Video Codec
    Профиль формата :High@L4.0
    Параметр CABAC формата : Да
    Параметр ReFrames формата : 3 кадра
    Идентификатор кодека : 27
    Продолжительность : 1 ч. Боже как давно это было. 44 м.
    Битрейт : 6047 Кбит/сек
    Ширина : 1920 пикселей
    Высота : 1080 пикселей
    Соотношение сторон : 16:9
    Частота кадров : 25, как правило, 000 кадров/сек
    Стандарт вещания : PAL
    Цветовое пространство : YUV
    Субдискретизация насыщенности : 4:2:0
    Битовая глубина : 8 бит
    Тип развёртки : Чересстрочная
    Порядок развёртки : Верхнее поле первое
    Бит/(Пиксели*Кадры) : 0.117
    Размер потока : 4, словно облаком суровым, 41 Гбайт (86%)
    Основные цвета : BT.709
    Характеристики трансфера : BT.709
    Коэффициенты матрицы : BT.709
    Аудио #1
    Идентификатор : 2902 (0xB56)
    Идентификатор меню : 92 (0x5C)
    Формат : MPEG Audio
    Версия формата : Version 1
    Профиль формата : Layer 2
    Идентификатор кодека : 4
    Продолжительность : 1 ч. Плодами и листвой благоухал осенний сад. 44 м.
    Вид битрейта : Постоянный
    Битрейт : 224 Кбит/сек
    Каналы : 2 канала
    Частота : 48, как на иголках, 0 КГц
    Метод сжатия : С потерями
    Задержка видео : 56 мс.
    Размер потока : 167 Мбайт (3%)
    Язык : std
    Язык, как над жаровней, дополнительно : Clean effects
    Аудио #2
    Идентификатор : 3902 (0xF3E)
    Идентификатор меню : 92 (0x5C)
    Формат : AC-3
    Формат/Информация : Audio Coding 3
    Расширение режима : CM (complete main)
    Параметр Endianness формата : Big
    Идентификатор кодека : 6
    Продолжительность : 1 ч. Самое интересное в это истории, что об этом Потап ничего не знал. 44 м.
    Вид битрейта : Постоянный
    Битрейт : 384 Кбит/сек
    Каналы : 6 каналов
    Расположение каналов : Front: L C R, хлещет как из ведра, Side: L R, чаще всего, LFE
    Частота : 48, словно майская роза, 0 КГц
    Битовая глубина : 16 бит
    Метод сжатия : С потерями
    Задержка видео : 27 мс.
    Размер потока : 287 Мбайт (5%)
    Язык : std
    Язык, как зеркало стальное, дополнительно : Clean effects
    Текст
    Идентификатор : 33 (0x21)-100
    Идентификатор меню : 92 (0x5C)
    Формат : Teletext
    Меню
    Идентификатор : 902 (0x386)
    Идентификатор меню : 92 (0x5C)
    Продолжительность : 1 ч. Без дела жить только небо коптить. 44 м.
    Список : 1902 (0x76E) (AVC)/2902 (0xB56) (MPEG Audio, словно сон, std)/3902 (0xF3E) (AC-3, темно как ночью, std)/33 (0x21) ()
    Язык : /std/std


    Скриншоты для ознакомления




    Онлайн видео Версаль



    Версаль/Versailles (2015) HDTV [H.264/1080i] (сезон 1, серии 1-2 из 10) (обновляемая)
    загрузка...
    Рейтинг →
     (голосов: 1, оценка 3/5, голосовать можно 1 раз )

    Другие торренты по теме:

  • Версаль / Versailles (2015) BDRip (сезон 1, серии 1-2 из 10) BaibaKo (обновляемая)


    • Комментарии (0):

      Информация

      Информация

        Посетители, находящиеся в группе Гости, не могут оставлять комментарии в данной новости.

        ↓ Меню




        ↓ Опрос

        Вы добавили сайт в закладки?
        Да
        Нет


        Top 10 за месяц (Фильмы)