.
Авторизация | Регистрация
Хочешь лучшие торренты? Добавь свой email!
Добавить

Торрент скачать бесплатно

» » Версаль / Versailles (2015) HDTV [H.264 / 1080i] (сезон 1, серии 1-2 из 10) (обновляемая) торрент скачать бесплатно




    Версаль / Versailles (2015) HDTV [H.264 / 1080i] (сезон 1, серии 1-2 из 10) (обновляемая) торрент скачать бесплатно

    Опубликовал: Админ | Дата: 12-03-2016, 04:01 | Просмотров: 58

    Производство: Франция, Канада, Capa Drama, Incendo Productions, Zodiak Media Group
    Жанр: Драма, Биография, История
    Режиссер: Дэниэл Роби, Кристоф Шреве, Жалиль Леспер

    Актеры
    Джордж Благден, Александр Влахос, Тай Рунян, Стюарт Боуман, Ивэн Уильямс, Noémie Schmidt, Анна Брюстер, Лиззи Брошере, Анатоль Таубман, Стив Кьюмин

    Описание

    1667 год. Время пошло, сказал кто то из толпы, к чему не понятно. Франция. Молодой король Людовик XIV хочет упрочить свою власть, пошатнувшуюся в результате Фронды (дворянской смуты во времена правления Людовика XIII), несмотря на козни заговорщиков. Для этого Людовик решает перенести свою резиденцию за пределы Парижа в Версаль. Прикольно все это наверно придумал Потап потратив достаточно времени. В то время в Версале нет ничего, кроме скромного охотничьего домика, но амбициозный правитель желает превратить это место во дворец.

    Дата мировой премьеры: 16 ноября 2015
    Продолжительность: ~00: 52: 00 серия
    Качество видео: HDTV 1080i
    Перевод: Многоголосый закадровый, профессиональный (Первый канал)
    Видео: AVC/H.264, 1920х1080, ~6047 kbps
    Аудио #1: MP2, 48 kHz, 2 ch, 224 kbps (MVO)
    Аудио #2: АС-3, 48 kHz, 6 ch, 384 kbps (MVO)
    Семпл: Скачать
    Код:

    Общее
    Идентификатор : 16 (0x10)
    Полное имя : Versailles_part_1_2_HD.ts
    Формат : MPEG-TS
    Размер файла : 5, 11 Гбайт
    Продолжительность : 1 ч. 44 м.
    Режим общего битрейта : Переменный
    Общий поток : 7008 Кбит/сек
    Видео
    Идентификатор : 1902 (0x76E)
    Идентификатор меню : 92 (0x5C)
    Формат : AVC
    Формат/Информация : Advanced Video Codec
    Профиль формата :High@L4.0
    Параметр CABAC формата : Да
    Параметр ReFrames формата : 3 кадра
    Идентификатор кодека : 27
    Продолжительность : 1 ч. 44 м.
    Битрейт : 6047 Кбит/сек
    Ширина : 1920 пикселей
    Высота : 1080 пикселей
    Соотношение сторон : 16:9
    Частота кадров : 25, 000 кадров/сек
    Стандарт вещания : PAL
    Цветовое пространство : YUV
    Субдискретизация насыщенности : 4:2:0
    Битовая глубина : 8 бит
    Тип развёртки : Чересстрочная
    Порядок развёртки : Верхнее поле первое
    Бит/(Пиксели*Кадры) : 0.117
    Размер потока : 4, 41 Гбайт (86%)
    Основные цвета : BT.709
    Характеристики трансфера : BT.709
    Коэффициенты матрицы : BT.709
    Аудио #1
    Идентификатор : 2902 (0xB56)
    Идентификатор меню : 92 (0x5C)
    Формат : MPEG Audio
    Версия формата : Version 1
    Профиль формата : Layer 2
    Идентификатор кодека : 4
    Продолжительность : 1 ч. 44 м.
    Вид битрейта : Постоянный
    Битрейт : 224 Кбит/сек
    Каналы : 2 канала
    Частота : 48, 0 КГц
    Метод сжатия : С потерями
    Задержка видео : 56 мс.
    Размер потока : 167 Мбайт (3%)
    Язык : std
    Язык, дополнительно : Clean effects
    Аудио #2
    Идентификатор : 3902 (0xF3E)
    Идентификатор меню : 92 (0x5C)
    Формат : AC-3
    Формат/Информация : Audio Coding 3
    Расширение режима : CM (complete main)
    Параметр Endianness формата : Big
    Идентификатор кодека : 6
    Продолжительность : 1 ч. Самое интересное в это истории, что об этом Потап ничего не знал. 44 м.
    Вид битрейта : Постоянный
    Битрейт : 384 Кбит/сек
    Каналы : 6 каналов
    Расположение каналов : Front: L C R, Side: L R, LFE
    Частота : 48, 0 КГц
    Битовая глубина : 16 бит
    Метод сжатия : С потерями
    Задержка видео : 27 мс.
    Размер потока : 287 Мбайт (5%)
    Язык : std
    Язык, дополнительно : Clean effects
    Текст
    Идентификатор : 33 (0x21)-100
    Идентификатор меню : 92 (0x5C)
    Формат : Teletext
    Меню
    Идентификатор : 902 (0x386)
    Идентификатор меню : 92 (0x5C)
    Продолжительность : 1 ч. 44 м.
    Список : 1902 (0x76E) (AVC)/2902 (0xB56) (MPEG Audio, std)/3902 (0xF3E) (AC-3, std)/33 (0x21) ()
    Язык : /std/std


    Скриншоты для ознакомления




    Онлайн видео Версаль



    Версаль/Versailles (2015) HDTV [H.264/1080i] (сезон 1, серии 1-2 из 10) (обновляемая)
    загрузка...
    Рейтинг →
     (голосов: 1, оценка 3/5, голосовать можно 1 раз )

    Другие торренты по теме:

  • Версаль / Versailles (2015) BDRip (сезон 1, серии 1-2 из 10) BaibaKo (обновляемая)
  • Грязные тайны Версаля (Версаль: чистый и грязный) / Versailles dirty secrets (Versailles : le propre et le sale) (2016) HDTVRip [H.264 / 720p-LQ]


    • Комментарии (0):

      Информация

      Информация

        Посетители, находящиеся в группе Гости, не могут оставлять комментарии в данной новости.

        ↓ Меню




        ↓ Опрос

        Вы добавили сайт в закладки?
        Да
        Нет


        Top 10 за месяц (Фильмы)