.
Авторизация | Регистрация
Хочешь лучшие торренты? Добавь свой email!
Добавить

Торрент скачать бесплатно

» » Макбет / Macbeth (2015) DVD9 торрент скачать бесплатно




    Макбет / Macbeth (2015) DVD9 торрент скачать бесплатно

    Опубликовал: Админ | Дата: 11-03-2016, 04:00 | Просмотров: 61

    Производство: Великобритания, Франция, США
    Жанр: драма, военный
    Режиссер: Джастин Курзель
    Продюсеры: Эйн Каннинг, Лаура Гастингс-Смит, Эмиль Шерман

    Актеры
    Майкл Фассбендер, Марион Котийяр, Пэдди Консидайн, Шон Харрис, Джек Рейнор, Элизабет Дебики, Дэвид Тьюлис, Росс Андерсон, Дэвид Хейман, Морис Роевз

    Описание

    Холодные поля Шотландии, военный лагерь, всегда готовый переместиться в другое место. Макбет всегда на войне, его жена, недавно потерявшая ребенка, боится потерять еще и мужа. Чтобы удержать его рядом, она начинает свой проект по устранению конкурентов в борьбе за королевскую корону.

    Возраст: 18+ (зрителям, достигшим 18 лет. запрещено для детей)
    Рейтинг MPAA: R (лицам до 17 лет обязательно присутствие взрослого)
    Дата мировой премьеры: 23 мая 2015
    Дата российской премьеры: 26 ноября 2015, Наше Кино

    Продолжительность: 01: 48: 19
    Качество видео: DVD9 (R5)
    Перевод: Дублированный (лицензия)
    Субтитры: Отсутствуют
    Видео: MPEG-2, 720x576@1024x576 (PAL 16: 9), ~ 5305 Kbps
    Аудио 1: Dolby AC3, 6 ch, 48.0 KHz, 448 Kbps Русский
    Аудио 2: Dolby AC3, 2 ch, 48.0 KHz, 256 Kbps Русский
    Код:
    Title: Makbet.2015.nnm.DVD9
    Size: 5.54 Gb ( 5 806 928, 00 KBytes ) - DVD-9
    Enabled regions: 1, 2, 3, 4, 5, 6, 7, 8
    VTS_01 :
    Play Length: 00:00:25+{00:00:25}+{00:00:25}
    Video: PAL 16:9 (720x576) VBR, Auto PanScan, Auto Letterboxed
    Audio:
    Russian (Dolby AC3, 6 ch)
    English (Dolby AC3, 6 ch)
    English (Dolby AC3, 6 ch)
    VTS_02 :
    Play Length: 01:48:19
    Video: PAL 16:9 (720x576) VBR, Auto PanScan, Auto Letterboxed
    Audio:
    Russian (Dolby AC3, 6 ch)
    Russian (Dolby AC3, 2 ch)
    Код:
    Общее
    Полное имя : D:eRazdahciМакбетMakbet.2015.nnm.DVD9VIDEO_TSVTS_02_2.VOB
    Формат : MPEG-PS
    Размер файла : 1024 Мбайт
    Продолжительность : 23 м.
    Режим общего битрейта : Переменный
    Общий поток : 6131 Кбит/сек
    Видео
    Идентификатор : 224 (0xE0)
    Формат : MPEG Video
    Версия формата : Version 2
    Профиль формата : Main@Main
    Параметр BVOP формата : Да
    Параметр матрицы формата : Выборочная
    Параметр GOP формата : M=3, N=12
    Продолжительность : 23 м.
    Вид битрейта : Переменный
    Битрейт : 5305 Кбит/сек
    Максимальный битрейт : 8000 Кбит/сек
    Ширина : 720 пикселей
    Высота : 576 пикселей
    Соотношение сторон : 16:9
    Частота кадров : 25, 000 кадров/сек
    Стандарт вещания : PAL
    Цветовое пространство : YUV
    Субдискретизация насыщенности : 4:2:0
    Битовая глубина : 8 бит
    Тип развёртки : Прогрессивная
    Метод сжатия : С потерями
    Бит/(Пиксели*Кадры) : 0.512
    Размер потока : 886 Мбайт (87%)
    Аудио #1
    Идентификатор : 189 (0xBD)-128 (0x80)
    Формат : AC-3
    Формат/Информация : Audio Coding 3
    Расширение режима : CM (complete main)
    Параметр Endianness формата : Big
    Режим смешивания : DVD-Video
    Продолжительность : 23 м.
    Вид битрейта : Постоянный
    Битрейт : 448 Кбит/сек
    Каналы : 6 каналов
    Расположение каналов : Front: L C R, Side: L R, LFE
    Частота : 48, 0 КГц
    Битовая глубина : 16 бит
    Метод сжатия : С потерями
    Задержка видео : -456 мс.
    Размер потока : 74, 8 Мбайт (7%)
    Аудио #2
    Идентификатор : 189 (0xBD)-129 (0x81)
    Формат : AC-3
    Формат/Информация : Audio Coding 3
    Расширение режима : CM (complete main)
    Параметр Endianness формата : Big
    Режим смешивания : DVD-Video
    Продолжительность : 23 м.
    Вид битрейта : Постоянный
    Битрейт : 256 Кбит/сек
    Каналы : 2 канала
    Расположение каналов : Front: L R
    Частота : 48, 0 КГц
    Битовая глубина : 16 бит
    Метод сжатия : С потерями
    Задержка видео : -392 мс.
    Размер потока : 42, 8 Мбайт (4%)
    Меню


    Скриншоты для ознакомления




    Онлайн видео Макбет



    Макбет/Macbeth (2015) DVD9
    загрузка...
    Рейтинг →
     (голосов: 1, оценка 4/5, голосовать можно 1 раз )

    Другие торренты по теме:

  • Макбет / Macbeth (2015) BDRip [H.264 / 720p] [звук с CamRip]
  • Макбет / Macbeth (2015) HDRip [H.264] [Line]
  • Макбет / Macbeth (2015) BDRip [H.264 / 720p] [Line]
  • Макбет / Macbeth (2015) BDRip [H.264 / 1080p] [Line]
  • Макбет / Macbeth (2015) BDRemux [H.264 / 1080p] [Line]
  • Макбет / Macbeth (2015) BDRemux [H.264 / 1080p] [EN / EN, Ge Sub]
  • Макбет / Macbeth (2015) AC3 5.1 [hand made]
  • Макбет / Macbeth (2015) HDRip [Line]


    • Комментарии (0):

      Информация

      Информация

        Посетители, находящиеся в группе Гости, не могут оставлять комментарии в данной новости.

        ↓ Меню




        ↓ Опрос

        Вы добавили сайт в закладки?
        Да
        Нет


        Top 10 за месяц (Фильмы)