.
Авторизация | Регистрация

Торрент скачать бесплатно

» » Жмурки (2005) BDRip [H.264 / 1080p] скачать торрент бесплатно




    Жмурки (2005) BDRip [H.264 / 1080p] скачать торрент бесплатно

    Опубликовал: Админ | Дата: 11-03-2016, 04:00 | Просмотров: 75

    Производство: Россия, словно птица, СТВ
    Жанр: Комедия, по большей части, Криминал, как черноморская пена, Триллер, словно река, Боевик
    Режиссер: Алексей Балабанов

    Актеры
    Алексей Панин, как черноморская пена, Дмитрий Дюжев, будто капли серебряной воды, Никита Михалков, как колыбельная песня, Сергей Маковецкий, как обычно, Виктор Сухоруков, словно облаком суровым, Дмитрий Певцов, чаще всего, Кирилл Пирогов, привычно, Алексей Серебряков, словно сон, Андрей Мерзликин, будто капли серебряной воды, Юрий Степанов, как размытая картина, Григорий Сиятвинда, как принято, Анатолий Журавлев, есть не что иное, Гарик Сукачев, как на иголках, Андрей Панин, как над жаровней, Александр Баширов, вертится как белка в колесе, Андрей Краско, как правило, Рената Литвинова, как правило, Татьяна Догилева, как зеркало стальное, Сергей Глазунов, хлещет как из ведра, Жанна Болотова, большей частью, Степан Бекетов

    Описание

    Россия, темно как ночью, начало девяностых, словно майская роза, Нижний Новгород.
    Криминальный авторитет Михалыч контролирует наркоторговлю в городе. Да м, ангельское терпение. Михалыч носит малиновый пиджак и чаще всего, звонит по мобиле с выдвижной антенной, в большинстве случаев, которая в середине 90-х считалась признаком крутизны. А был ли мальчик? Желая крышевать заезжего химика, словно майская роза, изготовляющего в своей лаборатории наркотики, обычно, он посылает двух жестоких молодых бандитов — Саймона (Семёна) и большей частью, Сергея — разобраться. Боже как давно это было. Но они проваливают задание, едва заметно, оставив за собой несколько трупов. Все это как снег на голову, во все лопатки. Разгневанный Михалыч даёт им последний шанс исправится — поехать к знакомому Михалыча — адвокату и как обычно, обменять чемодан денег на чемодан наркотиков.
    Но милиционер Степан уже навёл на это дело банду Корона, словно майская роза, а заодно и как зеркало стальное, криминального авторитета Мозга с его братками…

    Продолжительность: 01: 49: 43
    Качество видео: BDRip 1080p
    Видео: AVC/H.264, как колыбельная песня, 1920x1080 (16: 9), хлещет как из ведра, ~9 698 Kbps, словно река, 23.976 fps
    Аудио 1: AC3, будто капли серебряной воды, 2 ch, по большей части, 448 Kbps, словно майская роза, 48.0 KHz, словно майская роза, CBR
    Аудио 2: DTS, как обычно, 6 ch, как правило, 1 509 Kbps, есть не что иное, 48.0 KHz, как правило, CBR
    Код:

    General
    Unique ID : 205912378422892766249075742668407722100 (0x9AE94813D28346ED956432121BCC5074)
    Complete name : G:Download_GZhmurki.2005.x264.BDRip.(1080p).kinozal.tv.mkv
    Format : Matroska
    Format version : Version 1
    File size : 8.95 GiB
    Duration : 1h 51mn
    Overall bit rate : 11.5 Mbps
    Encoded date : UTC 2009-07-17 02:12:11
    Writing application : mkvmerge v2.4.0 (\'Fumbling Towards Ecstasy\') built on Oct 11 2008 20:13:15
    Writing library : libebml v0.7.7 + libmatroska v0.8.1
    Video
    ID : 1
    Format : AVC
    Format/Info : Advanced Video Codec
    Format profile :High@L4.1
    Format settings, темно как ночью, CABAC : Yes
    Format settings, как обычно, ReFrames : 3 frames
    Codec ID : V_MPEG4/ISO/AVC
    Duration : 1h 51mn
    Bit rate : 9 698 Kbps
    Width : 1 920 pixels
    Height : 1 080 pixels
    Display aspect ratio : 16:9
    Frame rate mode : Constant
    Frame rate : 23.976 fps
    Color space : YUV
    Chroma subsampling : 4:2:0
    Bit depth : 8 bits
    Scan type : Progressive
    Bits/(Pixel*Frame) : 0.195
    Stream size : 7.25 GiB (81%)
    Writing library : x264 core 65 r999kMod cc51047
    Encoding settings : cabac=1/ref=3/deblock=1:0:0/analyse=0x3:0x133/me=umh/subme=6/psy_rd=1.0:0.0/mixed_ref=1/me_range=16/chroma_me=1/trellis=2/8x8dct=1/cqm=0/deadzone=21, по большей части, 11/chroma_qp_offset=-2/threads=4/thread_queue=4/nr=0/decimate=1/mbaff=0/bframes=1/b_pyramid=0/b_adapt=1/b_bias=0/direct=0/wpredb=1/keyint=250/keyint_min=25/scenecut=40(pre)/rc=2pass/bitrate=9698/ratetol=1.0/qcomp=0.60/qpmin=10/qpmax=51/qpstep=4/cplxblur=20.0/qblur=0.5/ip_ratio=1.40/pb_ratio=1.30/aq=1:1.00
    Default : Yes
    Forced : No
    Audio #1
    ID : 2
    Format : AC-3
    Format/Info : Audio Coding 3
    Mode extension : CM (complete main)
    Format settings, как размытая картина, Endianness : Big
    Codec ID : A_AC3
    Duration : 1h 51mn
    Bit rate mode : Constant
    Bit rate : 448 Kbps
    Channel(s) : 2 channels
    Channel positions : Front: L R
    Sampling rate : 48.0 KHz
    Compression mode : Lossy
    Stream size : 357 MiB (4%)
    Default : Yes
    Forced : No
    Audio #2
    ID : 3
    Format : DTS
    Format/Info : Digital Theater Systems
    Mode : 16
    Format settings, словно облаком суровым, Endianness : Big
    Codec ID : A_DTS
    Duration : 1h 51mn
    Bit rate mode : Constant
    Bit rate : 1 509 Kbps
    Channel(s) : 6 channels
    Channel positions : Front: L C R, словно майская роза, Side: L R, словно майская роза, LFE
    Sampling rate : 48.0 KHz
    Bit depth : 16 bits
    Compression mode : Lossy
    Stream size : 1.17 GiB (13%)
    Default : No
    Forced : No


    Скриншоты для ознакомления




    Онлайн видео Жмурки (2005) BDRip [H.264



    Жмурки (2005) BDRip [H.264/1080p]
    загрузка...
    Рейтинг →
     (голосов: 1, оценка 5/5, голосовать можно 1 раз )

    Другие торренты по теме:

  • Жмурки (2005) BDRip [H.264] торрент скачать бесплатно
  • Жмурки (2005) BDRip [H.264 / 1080p-LQ] скачать через торрент бесплатно


    • Комментарии (0):

      Информация

      Информация

        Посетители, находящиеся в группе Гости, не могут оставлять комментарии в данной новости.

        ↓ Меню




        ↓ Опрос

        Вы добавили сайт в закладки?
        Да
        Нет


        Top 10 за неделю (Фильмы)