.
Авторизация | Регистрация
Хочешь лучшие торренты? Добавь свой email!
Добавить

Торрент скачать бесплатно

» » Последний охотник на ведьм / The Last Witch Hunter (2015) DVD5 [BD -> DVD] торрент скачать бесплатно




    Последний охотник на ведьм / The Last Witch Hunter (2015) DVD5 [BD -> DVD] торрент скачать бесплатно

    Опубликовал: Админ | Дата: 11-03-2016, 04:00 | Просмотров: 64

    Производство: США, Китай, Канада/Summit Entertainment, Aperture Entertainment, Atmosphere Entertainment MM, Goldmann Pictures, NeoReel, One Race Films, TIK Films
    Жанр: Фэнтези, боевик, приключения
    Режиссер: Брек Эйснер
    Продюсеры: Марк Кантон, Вин Дизель, Берни Голдманн

    Актеры
    Вин Дизель, Роуз Лесли, Элайджа Вуд, Оулавюр Дарри Оулафссон, Рина Оуэн, Юли Энгельбрехт, Майкл Кейн, Джозеф Гилган, Исаак Де Банколе, Майкл Халсли

    Описание

    Современный мир скрывает множество секретов, но самым удивительным из них является то, что ведьмы до сих пор живут среди нас. Это злобные сверхъестественные существа, чья цель — наслать на мир смертоносную чуму. Армии охотников на ведьм сражались с ними на протяжении многих веков.
    В наши дни остался всего лишь один охотник на ведьм, Колдер, которому однажды удалось убить всемогущую королеву ведьм. Но Колдер еще не знает, что королева воскресла и жаждет отомстить своему убийце…

    Возраст: 16+ (зрителям, достигшим 16 лет)
    Рейтинг MPAA: PG-13 (детям до 13 лет просмотр нежелателен)
    Дата мировой премьеры: 13 октября 2015
    Дата российской премьеры: 29 октября 2015, Централ Партнершип

    Продолжительность: 01: 46: 28
    Качество видео: DVD5 BD - DVD
    Перевод: Дублированный, авторский (одноголосый закадровый)
    Субтитры: Вшитые отключаемые
    Язык субтитров: Английский, русский
    Видео: MPEG-2, 720x480@853x480 (NTSC 16: 9), ~4250 Kbps
    Аудио 1: AC3 5.1, 448 Kbps (Английский - оригинал)
    Аудио 2: AC3 5.1, 448 Kbps (Русский - дублированный)
    Аудио 3: AC3 5.1, 448 Kbps (Русский - одноголосый закадровый, А. Дольский)
    Код:
    Title: The Last Witch Hunter (2015) DVD5 [BD-DVD]
    Size: 4.37 Gb ( 4 585 636, 00 KBytes ) - DVD-5
    Enabled regions: 1, 2, 3, 4, 5, 6, 7, 8
    VTS_01 :
    Play Length: 01:46:28
    Video: NTSC 16:9 (720x480) VBR, Auto Letterboxed
    Audio:
    Russian (Dolby AC3, 6 ch)
    English (Dolby AC3, 6 ch)
    Russian (Dolby AC3, 6 ch)
    Subtitles:
    Russian
    English
    * Menus Information *
    VIDEO_TS Menu
    Video:
    NTSC 16:9 (720x480) VBR
    Auto Letterboxed
    Audio:
    Not specified (Dolby AC3, 6 ch)
    Russian Language Unit :
    Title Menu
    VTS_01 Menu
    Video:
    NTSC 16:9 (720x480) VBR
    Auto Letterboxed
    Audio:
    Not specified (Dolby AC3, 6 ch)
    Russian Language Unit :
    Root Menu
    Audio Menu
    Chapter (PTT) Menu
    Код:
    Общее
    Полное имя : G:ВидеоThe Last Witch Hunter (2015) DVD5 [BD-DVD]VIDEO_TSVTS_01_1.VOB
    Формат : MPEG-PS
    Размер файла : 1024 Мбайт
    Продолжительность : 25 м.
    Режим общего битрейта : Переменный
    Общий поток : 5710 Кбит/сек
    Видео
    Идентификатор : 224 (0xE0)
    Формат : MPEG Video
    Версия формата : Version 2
    Профиль формата : Main@Main
    Параметр BVOP формата : Да
    Параметр матрицы формата : Выборочная
    Параметр GOP формата : Variable
    Продолжительность : 25 м.
    Вид битрейта : Переменный
    Битрейт : 4253 Кбит/сек
    Максимальный битрейт : 8400 Кбит/сек
    Ширина : 720 пикселей
    Высота : 480 пикселей
    Соотношение сторон : 16:9
    Частота кадров : 23, 976 кадра/сек
    Стандарт вещания : NTSC
    Цветовое пространство : YUV
    Субдискретизация насыщенности : 4:2:0
    Битовая глубина : 8 бит
    Тип развёртки : Прогрессивная
    Порядок развёртки : 2:3 Pulldown
    Метод сжатия : С потерями
    Бит/(Пиксели*Кадры) : 0.513
    Временной код первого кадра : 00:00:00:00
    Оригинал временного кода : Group of pictures t_head
    Размер потока : 763 Мбайт (74%)
    Аудио #1
    Идентификатор : 189 (0xBD)-128 (0x80)
    Формат : AC-3
    Формат/Информация : Audio Coding 3
    Расширение режима : CM (complete main)
    Параметр Endianness формата : Big
    Режим смешивания : DVD-Video
    Продолжительность : 25 м.
    Вид битрейта : Постоянный
    Битрейт : 448 Кбит/сек
    Каналы : 6 каналов
    Расположение каналов : Front: L C R, Side: L R, LFE
    Частота : 48, 0 КГц
    Битовая глубина : 16 бит
    Метод сжатия : С потерями
    Размер потока : 80, 3 Мбайт (8%)
    Аудио #2
    Идентификатор : 189 (0xBD)-129 (0x81)
    Формат : AC-3
    Формат/Информация : Audio Coding 3
    Расширение режима : CM (complete main)
    Параметр Endianness формата : Big
    Режим смешивания : DVD-Video
    Продолжительность : 25 м.
    Вид битрейта : Постоянный
    Битрейт : 448 Кбит/сек
    Каналы : 6 каналов
    Расположение каналов : Front: L C R, Side: L R, LFE
    Частота : 48, 0 КГц
    Битовая глубина : 16 бит
    Метод сжатия : С потерями
    Размер потока : 80, 3 Мбайт (8%)
    Аудио #3
    Идентификатор : 189 (0xBD)-130 (0x82)
    Формат : AC-3
    Формат/Информация : Audio Coding 3
    Расширение режима : CM (complete main)
    Параметр Endianness формата : Big
    Режим смешивания : DVD-Video
    Продолжительность : 25 м.
    Вид битрейта : Постоянный
    Битрейт : 448 Кбит/сек
    Каналы : 6 каналов
    Расположение каналов : Front: L C R, Side: L R, LFE
    Частота : 48, 0 КГц
    Битовая глубина : 16 бит
    Метод сжатия : С потерями
    Размер потока : 80, 3 Мбайт (8%)
    Текст #1
    Идентификатор : 189 (0xBD)-32 (0x20)
    Формат : RLE
    Формат/Информация : Run-length encoding
    Режим смешивания : DVD-Video
    Текст #2
    Идентификатор : 189 (0xBD)-33 (0x21)
    Формат : RLE
    Формат/Информация : Run-length encoding
    Режим смешивания : DVD-Video
    Меню


    Скриншоты для ознакомления




    Онлайн видео Последний охотник на ведьм



    Последний охотник на ведьм/The Last Witch Hunter (2015) DVD5 [BD -> DVD]
    загрузка...
    Рейтинг →
     (голосов: 1, оценка 3/5, голосовать можно 1 раз )

    Другие торренты по теме:

  • Последний охотник на ведьм / The Last Witch Hunter (2015) WEBRip [H.264 / 1080p] [Трейлер] скачать через торрент бесплатно
  • Последний охотник на ведьм / The Last Witch Hunter (2015) WEBRip [H.264 / 1080p] [Трейлер#2] скачать через торрент бесплатно
  • Последний охотник на ведьм / The Last Witch Hunter (2015) CamRip [EN] скачать через торрент бесплатно
  • Последний охотник на ведьм / The Last Witch Hunter (2015) WEBRip [H.264] [Трейлер] скачать через торрент бесплатно
  • Последний охотник на ведьм / The Last Witch Hunter (2015) CamRip скачать через торрент бесплатно
  • Последний охотник на ведьм / The Last Witch Hunter (2015) WEB-DL [H.264 / 1080p-LQ] скачать через торрент бесплатно
  • Последний охотник на ведьм / The Last Witch Hunter (2015) WEB-DLRip скачать через торрент бесплатно
  • Последний охотник на ведьм / The Last Witch Hunter (2015) WEB-DLRip


    • Комментарии (0):

      Информация

      Информация

        Посетители, находящиеся в группе Гости, не могут оставлять комментарии в данной новости.

        ↓ Меню




        ↓ Опрос

        Вы добавили сайт в закладки?
        Да
        Нет


        Top 10 за месяц (Фильмы)