.
Авторизация | Регистрация
Хочешь лучшие торренты? Добавь свой email!
Добавить

Торрент скачать бесплатно

» » СуперКопы (2016) WEB-DLRip [H.264 / 720p-LQ] (сезон 1, серии 1-10 из 24) (обновляемая) торрент скачать бесплатно




    СуперКопы (2016) WEB-DLRip [H.264 / 720p-LQ] (сезон 1, серии 1-10 из 24) (обновляемая) торрент скачать бесплатно

    Опубликовал: Админ | Дата: 11-03-2016, 04:00 | Просмотров: 84

    Производство: Украина/Студия 17 Production
    Жанр: комедия, ситком
    Режиссер: Александр Богданенко

    Актеры
    Андрей Бурым, Феликс Аброскин, Тарас Цымбалюк, Ярослав Герус, Павел Тупиков, Ольга Ларина, Сергей Куда, Александр Погребняк, Алиса Клюшкина, Виктория Варлей и др.

    Описание

    Новый закон – новый порядок. На улицы выходит отряд СуперКопов. Отряд, набранный из тех, кто до этого ничего общего с законом не имел. И даже наоборот… Во главе СуперКопов - Георгий Багратионович Мамиашвили, грузин, посадивший за коррупцию всех друзей и родственников. Их ждут запутанные происшествия, преступники-беглецы, ДТП по собственной вине, перепутанные грабители, священники-взяточники. И много юмора!
    Продолжительность: ~00: 20: 00 серия
    Качество видео: WEB-DLRip
    Видео: AVC/H.264, 1280x720 (16: 9), ~2000 Kbps
    Аудио: AC3, 2 ch, 192 Kbps, CBR
    Код:
    Общее
    Уникальный идентификатор : 220129882920667354333572776769838248332 (0xA59B792B4FD7E30DAC86E99D4F21F18C)
    Полное имя : F:DOWNLOADSСуперКопы (1 cезон ) 2016 WEB-DLRip 720СуперКопы - 01 серия.mkv
    Формат : Matroska
    Версия формата : Version 2
    Размер файла : 288 Мбайт
    Продолжительность : 18 м.
    Режим общего битрейта : Переменный
    Общий поток : 2163 Кбит/сек
    Дата кодирования : UTC 2016-03-08 09:36:42
    Программа кодирования : mkvmerge v7.8.0 (\'River Man\') 32bit built on Apr 3 2015 12:11:22
    Библиотека кодирования : libebml v1.3.1 + libmatroska v1.4.2
    Видео
    Идентификатор : 1
    Формат : AVC
    Формат/Информация : Advanced Video Codec
    Профиль формата : High@L4
    Параметр CABAC формата : Да
    Параметр ReFrames формата : 2 кадра
    Идентификатор кодека : V_MPEG4/ISO/AVC
    Продолжительность : 18 м.
    Вид битрейта : Переменный
    Битрейт : 1928 Кбит/сек
    Максимальный битрейт : 3000 Кбит/сек
    Ширина : 1280 пикселей
    Высота : 720 пикселей
    Соотношение сторон : 16:9
    Режим частоты кадров : Постоянный
    Частота кадров : 25, 000 кадров/сек
    Стандарт вещания : PAL
    Цветовое пространство : YUV
    Субдискретизация насыщенности : 4:2:0
    Битовая глубина : 8 бит
    Тип развёртки : Прогрессивная
    Бит/(Пиксели*Кадры) : 0.084
    Размер потока : 257 Мбайт (89%)
    Default : Да
    Forced : Нет
    Цветовой диапазон : Limited
    Основные цвета : BT.709
    Характеристики трансфера : BT.709
    Коэффициенты матрицы : BT.709
    Аудио
    Идентификатор : 2
    Формат : AC-3
    Формат/Информация : Audio Coding 3
    Расширение режима : CM (complete main)
    Параметр Endianness формата : Big
    Идентификатор кодека : A_AC3
    Продолжительность : 18 м.
    Вид битрейта : Постоянный
    Битрейт : 192 Кбит/сек
    Каналы : 2 канала
    Расположение каналов : Front: L R
    Частота : 48, 0 КГц
    Метод сжатия : С потерями
    Размер потока : 25, 6 Мбайт (9%)
    Default : Да
    Forced : Нет


    Скриншоты для ознакомления




    Онлайн видео СуперКопы (2016) WEB-DLRip [H.264



    СуперКопы (2016) WEB-DLRip [H.264/720p-LQ] (сезон 1, серии 1-10 из 24) (обновляемая)
    загрузка...
    Рейтинг →
     (голосов: 1, оценка 5/5, голосовать можно 1 раз )

    Другие торренты по теме:

  • СуперКопы (2016) WEB-DLRip (сезон 1, серии 1-10 из 24) (обновляемая)


    • Комментарии (0):

      Информация

      Информация

        Посетители, находящиеся в группе Гости, не могут оставлять комментарии в данной новости.

        ↓ Меню




        ↓ Опрос

        Вы добавили сайт в закладки?
        Да
        Нет


        Top 10 за месяц (Фильмы)