.
Авторизация | Регистрация
Хочешь лучшие торренты? Добавь свой email!
Добавить

Торрент скачать бесплатно

» » Руководство для женатых / A Guide for the Married Man (1967) HDTV [H.264 / 1080i] торрент скачать бесплатно




    Руководство для женатых / A Guide for the Married Man (1967) HDTV [H.264 / 1080i] торрент скачать бесплатно

    Опубликовал: Админ | Дата: 10-03-2016, 04:00 | Просмотров: 117

    Производство: США, Twentieth Century Fox Film Corporation
    Жанр: Комедия, Мелодрама
    Режиссер: Джин Келли

    Актеры
    Уолтер Мэттау, Ингер Стивенс, Сью Эни Лэнгдон, Джеки Рассел, Роберт Морс, Алин Таун, Клер Келли, Ив Брент, Марвин Броди, Маджел Бэррет

    Описание

    После 12-ти лет счастливой супружеской жизни Пол Мэннинг вдруг понимает, что его одолела скука. Приятель Эд Стэндер дает Полу совет: ему необходимо развлечься и завести интрижку на стороне, иначе – браку конец. Но порядочный семьянин совсем не готов прибегнуть к таким реанимационным мерам по спасению семьи…

    Продолжительность: 01: 27: 06
    Качество видео: HDTV H.264/1080i
    Перевод: Многоголосый закадровый (Первый канал)
    Видео: AVC/H.264, 1920х1080, ~8513 kbps
    Аудио #1: MP2, 48 kHz, 2 ch, 224 kbps (MVO)
    Аудио #2: АС-3, 48 kHz, 6 ch, 384 kbps (MVO)
    Семпл: Скачать
    Код:

    Общее
    Идентификатор : 16 (0x10)
    Полное имя : A Guide for the Married Man_HD.ts
    Формат : MPEG-TS
    Размер файла : 5, 84 Гбайт
    Продолжительность : 1 ч. 27 м.
    Режим общего битрейта : Переменный
    Общий поток : 9602 Кбит/сек
    Видео
    Идентификатор : 1902 (0x76E)
    Идентификатор меню : 92 (0x5C)
    Формат : AVC
    Формат/Информация : Advanced Video Codec
    Профиль формата :High@L4.0
    Параметр CABAC формата : Да
    Параметр ReFrames формата : 3 кадра
    Параметр GOP формата : M=4, N=32
    Идентификатор кодека : 27
    Продолжительность : 1 ч. 27 м.
    Битрейт : 8513 Кбит/сек
    Ширина : 1920 пикселей
    Высота : 1080 пикселей
    Соотношение сторон : 16:9
    Частота кадров : 25, 000 кадров/сек
    Стандарт вещания : PAL
    Цветовое пространство : YUV
    Субдискретизация насыщенности : 4:2:0
    Битовая глубина : 8 бит
    Тип развёртки : Чересстрочная
    Порядок развёртки : Верхнее поле первое
    Бит/(Пиксели*Кадры) : 0.164
    Размер потока : 5, 18 Гбайт (89%)
    Основные цвета : BT.709
    Характеристики трансфера : BT.709
    Коэффициенты матрицы : BT.709
    Аудио #1
    Идентификатор : 2902 (0xB56)
    Идентификатор меню : 92 (0x5C)
    Формат : MPEG Audio
    Версия формата : Version 1
    Профиль формата : Layer 2
    Идентификатор кодека : 4
    Продолжительность : 1 ч. 27 м.
    Вид битрейта : Постоянный
    Битрейт : 224 Кбит/сек
    Каналы : 2 канала
    Частота : 48, 0 КГц
    Метод сжатия : С потерями
    Задержка видео : 72 мс.
    Размер потока : 140 Мбайт (2%)
    Язык : std
    Язык, дополнительно : Clean effects
    Аудио #2
    Идентификатор : 3902 (0xF3E)
    Идентификатор меню : 92 (0x5C)
    Формат : AC-3
    Формат/Информация : Audio Coding 3
    Расширение режима : CM (complete main)
    Параметр Endianness формата : Big
    Идентификатор кодека : 6
    Продолжительность : 1 ч. 27 м.
    Вид битрейта : Постоянный
    Битрейт : 384 Кбит/сек
    Каналы : 6 каналов
    Расположение каналов : Front: L C R, Side: L R, LFE
    Частота : 48, 0 КГц
    Битовая глубина : 16 бит
    Метод сжатия : С потерями
    Задержка видео : 27 мс.
    Размер потока : 239 Мбайт (4%)
    Язык : std
    Язык, дополнительно : Clean effects
    Текст
    Идентификатор : 33 (0x21)-100
    Идентификатор меню : 92 (0x5C)
    Формат : Teletext
    Меню
    Идентификатор : 902 (0x386)
    Идентификатор меню : 92 (0x5C)
    Продолжительность : 1 ч. 27 м.
    Список : 1902 (0x76E) (AVC)/2902 (0xB56) (MPEG Audio, std)/3902 (0xF3E) (AC-3, std)/33 (0x21) ()
    Язык : /std/std


    Скриншоты для ознакомления




    Онлайн видео Руководство для женатых



    Руководство для женатых/A Guide for the Married Man (1967) HDTV [H.264/1080i]
    загрузка...
    Рейтинг →
     (голосов: 1, оценка 3/5, голосовать можно 1 раз )

    Другие торренты по теме:

  • Стивен Джайлс | Руководство по Raspberry Pi для начинающих (2017) [EPUB, PDF] [En]
  • Мантавиа Гайар | Руководство по реализации Odoo 10 (2017) [EPUB] [En]
  • Дж. Мак-Махон | Аналитические приборы. Руководство по лабораторным, портативным и миниатюрным приборам (2013) [PDF]
  • Project Management Institute | Руководство к своду знаний по управлению проектами. Руководство РМВОК [5-е издание] (2013) [PDF]
  • [BMW MOTORRAD] (03.2014 29-я редакция) Иллюстрированное руководство по ремонту скачать через торрент бесплатно
  • Tojiro | Руководство по заточке ножей (2011) DVDRip [H.264] скачать через торрент бесплатно
  • А.С.Горшков | Инженерные системы. Руководство по проектированию, строительству и реконструкции зданий с низким потреблением энергии (2013) [PDF]
  • Posing App - Model Poses v1.6 - руководство позирования для фото (31.07.2013) <En> скачать через торрент бесплатно


    • Комментарии (0):

      Информация

      Информация

        Посетители, находящиеся в группе Гости, не могут оставлять комментарии в данной новости.

        ↓ Меню




        ↓ Опрос

        Вы добавили сайт в закладки?
        Да
        Нет


        Top 10 за месяц (Фильмы)