.
Авторизация | Регистрация
Хочешь лучшие торренты? Добавь свой email!
Добавить

Торрент скачать бесплатно

» » Батальонъ (Батальон смерти) (2016) HDTVRip (сезон 1, серии 1-2 из 4) [Расширенная телеверсия] (обновляемая) торрент скачать бесплатно




    Батальонъ (Батальон смерти) (2016) HDTVRip (сезон 1, серии 1-2 из 4) [Расширенная телеверсия] (обновляемая) торрент скачать бесплатно

    Опубликовал: Админ | Дата: 10-03-2016, 04:00 | Просмотров: 43

    Телекомпания: Первый канал HD
    Производство: Россия/WDSSPR
    Жанр: военный, драма, история
    Режиссер: Дмитрий Месхиев

    Актеры
    Мария Аронова, Мария Кожевникова, Ирина Рахманова, Марат Башаров, Янина Малинчик, Евгений Дятлов, Яков Шамшин, Алёна Кучкова, Валерия Шкирандо, Николай Аузин, Владимир Зайцев, Екатерина Вилкова, Сергей Тэсслер, Юлия Яновская, Дмитрий Шевченко, Артур Ваха и др.

    Описание

    Весна 1917-го года. Февральская революция изменила жизнь России и ход Великой войны. Государь уже отрёкся от престола. В окопах, где противостояние с немцами длится уже не один год, вовсю ведут свою пропаганду большевики. Они призывают к миру с неприятелем. Российское офицерство фактически ничего не может решить без одобрения так называемых солдатских комитетов. Армия находится на пороге окончательного разложения. По приказу Временного правительства для поднятия боевого духа создаётся женский Батальон смерти под командованием георгиевского кавалера Марии Бочкарёвой. Своей службой Батальон смерти подаёт пример храбрости, мужества и спокойствия, поднимает дух солдат и доказывает, что каждая из этих женщин-героев достойна звания воина русской армии.

    Премьера кинофильма на большом экране: 20 февраля 2015 (Россия)
    Телевизионная премьера (РФ): 9 марта 2016 (Первый канал, Россия)

    Релиз от: olegka7373
    Продолжительность: ~ 00: 52: 00 серия
    Качество видео: HDTVRip
    Реклама: Отсутствует
    Видео: MPEG4, XviD, 720x384 (1.875), 25.000 fps, 1 799 Kbps (0.260 bit/pixel)
    Аудио: AC-3, 48.0 KHz, 2 ch, 192 Kbps, CBR
    Код:
    Формат : AVI
    Формат/Информация : Audio Video Interleave
    Размер файла : 740 Мбайт
    Продолжительность : 51 м.
    Общий поток : 2001 Кбит/сек
    Программа кодирования : VirtualDubMod 1.5.10.3 (build 2550/release)
    Библиотека кодирования : VirtualDubMod build 2550/release
    Видео
    Идентификатор : 0
    Формат : MPEG-4 Visual
    Профиль формата : Advanced Simple@L5
    Параметр BVOP формата : 1
    Параметр QPel формата : Нет
    Параметр GMC формата : Без точки перехода
    Параметр матрицы формата : Выборочная
    Идентификатор кодека : XVID
    Идентификатор кодека/Подсказка : XviD
    Продолжительность : 51 м.
    Битрейт : 1799 Кбит/сек
    Ширина : 720 пикселей
    Высота : 384 пикселя
    Соотношение сторон : 1, 85:1
    Частота кадров : 25, 000 кадров/сек
    Цветовое пространство : YUV
    Субдискретизация насыщенности : 4:2:0
    Битовая глубина : 8 бит
    Тип развёртки : Прогрессивная
    Метод сжатия : С потерями
    Бит/(Пиксели*Кадры) : 0.260
    Размер потока : 665 Мбайт (90%)
    Библиотека кодирования : XviD 73
    Аудио
    Идентификатор : 1
    Формат : AC-3
    Формат/Информация : Audio Coding 3
    Расширение режима : CM (complete main)
    Параметр Endianness формата : Big
    Идентификатор кодека : 2000
    Продолжительность : 51 м.
    Вид битрейта : Постоянный
    Битрейт : 192 Кбит/сек
    Каналы : 2 канала
    Расположение каналов : Front: L R
    Частота : 48, 0 КГц
    Битовая глубина : 16 бит
    Метод сжатия : С потерями
    Размер потока : 71, 0 Мбайт (10%)
    Выравнивание : Разделение по промежуткам
    Продолжительность промежутка : 40 мс. (1, 00 видеокадр)
    Время предзагрузки промежутка : 500 мс.
    Приз За лучшую женскую роль – Мария Аронова. ХХIII Всероссийский кинофестиваль Виват кино России!.
    Приз За лучшую режиссуру - Дмитрию Месхиеву. На американском кинофестивале The Honolulu Film Awards.
    Почетный диплом кинофестиваля Дворянский мир, с медалью За заслуги с формулировкой За верность военно-патриотической теме на отечественном киноэкране – Игорю Угольникову
    Награды на Международном кинофестивале в Мумбаи в номинациях: Лучший фильм, Лучший сценарий, Лучшая женская роль и Лучший режиссер монтажа.
    Платиновая награда за художественный фильм – режиссер Дмитрий Месхиев на Азиатско-Тихоокеанском Международном кинофестивале в Джаккарте (APIFA)
    Приз Лучший дебют - Янина Малинчик, приз За лучшую роль второго плана - Ирина Рахманова на Международном фестивале актеров кино Созвездие.
    Призы в номинациях Лучший иностранный фильм, Лучший режиссер - Дмитрий Месхиев, Лучшая актриса - Мария Аронова, Лучшая операторская работа - Илья Авербах на Международном кинофестивале Brigde Film Fest,
    Приз в номинации Лучший иностранный фильм на Международном кинофестивале Catalina Film Festival
    Приз За лучшее исполнение главной роли - Мария Аронова, на международном кинофестивале в Портсмуте
    Приз продюсеру фильма Игорю Угольникову, на международном кинофестивале в Лофлине
    Гран-при, а так же победа в номинациях Лучшая актриса - Мария Аронова, Лучшая актриса второго плана - Мария Кожевникова, Лучший сценарий - Илья Авраменко на Международном кинофестиваль военного кино им.Ю.Н.Озерова
    Приз За лучшую женскую роль Марии Кожевниковой на международном кинофестивале в Ереване (Sose International Film Festival)
    - Приз За лучшее исполнение главной роли - Мария Аронова, на международном кинофестивале в Портсмуте
    Приз продюсеру фильма Игорю Угольникову, на международном кинофестивале в Лофлине
    Гран-при, а так же победа в номинациях Лучшая актриса - Мария Аронова, Лучшая актриса второго плана - Мария Кожевникова, Лучший сценарий - Илья Авраменко на Международном кинофестиваль военного кино им.Ю.Н.Озерова
    Приз За лучшую женскую роль Марии Кожевниковой на международном кинофестивале в Ереване (Sose International Film Festival)


    Скриншоты для ознакомления




    Онлайн видео Батальонъ (Батальон смерти) (2016) HDTVRip (сезон любимого сериала 1, серии 1



    Батальонъ (Батальон смерти) (2016) HDTVRip (сезон 1, серии 1-2 из 4) [Расширенная телеверсия] (обновляемая)
    загрузка...
    Рейтинг →
     (голосов: 1, оценка 3/5, голосовать можно 1 раз )

    Другие торренты по теме:

  • Батальонъ (Батальон смерти) (2016) HDTV [H.264 / 1080i] (сезон 1, серии 1-2 из 4) [Расширенная телеверсия] (обновляемая)
  • Батальонъ / Батальон смерти (2015) WEB-DL [H.264 / 1080p-LQ] (серии 1-4 из 4) [Расширенная телеверсия]


    • Комментарии (0):

      Информация

      Информация

        Посетители, находящиеся в группе Гости, не могут оставлять комментарии в данной новости.

        ↓ Меню




        ↓ Опрос

        Вы добавили сайт в закладки?
        Да
        Нет


        Top 10 за месяц (Фильмы)