.
Авторизация | Регистрация
Хочешь лучшие торренты? Добавь свой email!
Добавить

Торрент скачать бесплатно

» » Батальонъ (Батальон смерти) (2016) HDTV [H.264 / 1080i] (сезон 1, серии 1-2 из 4) [Расширенная телеверсия] (обновляемая) торрент скачать бесплатно




    Батальонъ (Батальон смерти) (2016) HDTV [H.264 / 1080i] (сезон 1, серии 1-2 из 4) [Расширенная телеверсия] (обновляемая) торрент скачать бесплатно

    Опубликовал: Админ | Дата: 10-03-2016, 04:00 | Просмотров: 80

    Телекомпания: Первый канал HD
    Производство: Россия/WDSSPR
    Жанр: военный, драма, история
    Режиссер: Дмитрий Месхиев

    Актеры
    Мария Аронова, Мария Кожевникова, Ирина Рахманова, Марат Башаров, Янина Малинчик, Евгений Дятлов, Яков Шамшин, Алёна Кучкова, Валерия Шкирандо, Николай Аузин, Владимир Зайцев, Екатерина Вилкова, Сергей Тэсслер, Юлия Яновская, Дмитрий Шевченко, Артур Ваха и др.

    Описание

    Весна 1917-го года. Февральская революция изменила жизнь России и ход Великой войны. Государь уже отрёкся от престола. В окопах, где противостояние с немцами длится уже не один год, вовсю ведут свою пропаганду большевики. Они призывают к миру с неприятелем. Российское офицерство фактически ничего не может решить без одобрения так называемых солдатских комитетов. Армия находится на пороге окончательного разложения. По приказу Временного правительства для поднятия боевого духа создаётся женский Батальон смерти под командованием георгиевского кавалера Марии Бочкарёвой. Своей службой Батальон смерти подаёт пример храбрости, мужества и спокойствия, поднимает дух солдат и доказывает, что каждая из этих женщин-героев достойна звания воина русской армии.

    Премьера кинофильма на большом экране: 20 февраля 2015 (Россия)
    Телевизионная премьера (РФ): 9 марта 2016 (Первый канал, Россия)

    Релиз от: olegka7373
    Продолжительность: ~ 00: 52: 00 серия
    Качество видео: HDTV
    Реклама: Отсутствует
    Видео: AVC, 1920x1080 (16: 9), 25.000 fps, 6 032 Kbps (0.116 bit/pixel)
    Аудио: AC-3, 48.0 KHz, 6 ch, 384 Kbps, CBR
    Аудио: MP2, 48.0 KHz, 2 ch, 192 Kbps, CBR
    Код:
    Формат : MPEG-TS
    Размер файла : 2, 51 Гбайт
    Продолжительность : 51 м.
    Режим общего битрейта : Переменный
    Общий поток : 6958 Кбит/сек
    Видео
    Идентификатор : 604 (0x25C)
    Идентификатор меню : 80 (0x50)
    Формат : AVC
    Формат/Информация : Advanced Video Codec
    Профиль формата : High@L4
    Параметр CABAC формата : Да
    Параметр ReFrames формата : 3 кадра
    Параметр GOP формата : M=4, N=32
    Идентификатор кодека : 27
    Продолжительность : 51 м.
    Битрейт : 6032 Кбит/сек
    Ширина : 1920 пикселей
    Высота : 1080 пикселей
    Соотношение сторон : 16:9
    Частота кадров : 25, 000 кадров/сек
    Стандарт вещания : Component
    Цветовое пространство : YUV
    Субдискретизация насыщенности : 4:2:0
    Битовая глубина : 8 бит
    Тип развёртки : Чересстрочная
    Порядок развёртки : Верхнее поле первое
    Бит/(Пиксели*Кадры) : 0.116
    Размер потока : 2, 18 Гбайт (87%)
    Цветовой диапазон : Limited
    Основные цвета : BT.709
    Характеристики трансфера : BT.709
    Коэффициенты матрицы : BT.709
    Аудио #1
    Идентификатор : 607 (0x25F)
    Идентификатор меню : 80 (0x50)
    Формат : AC-3
    Формат/Информация : Audio Coding 3
    Расширение режима : CM (complete main)
    Параметр Endianness формата : Big
    Идентификатор кодека : 6
    Продолжительность : 51 м.
    Вид битрейта : Постоянный
    Битрейт : 384 Кбит/сек
    Каналы : 6 каналов
    Расположение каналов : Front: L C R, Side: L R, LFE
    Частота : 48, 0 КГц
    Битовая глубина : 16 бит
    Метод сжатия : С потерями
    Размер потока : 142 Мбайт (6%)
    Язык : Russian
    Аудио #2
    Идентификатор : 608 (0x260)
    Идентификатор меню : 80 (0x50)
    Формат : MPEG Audio
    Версия формата : Version 1
    Профиль формата : Layer 2
    Идентификатор кодека : 3
    Продолжительность : 51 м.
    Вид битрейта : Постоянный
    Битрейт : 192 Кбит/сек
    Каналы : 2 канала
    Частота : 48, 0 КГц
    Метод сжатия : С потерями
    Размер потока : 71, 0 Мбайт (3%)
    Язык : Russian
    Приз За лучшую женскую роль – Мария Аронова. О таком странном сюжете не догадывалась даже Юлия Володимировна. ХХIII Всероссийский кинофестиваль Виват кино России!.
    Приз За лучшую режиссуру - Дмитрию Месхиеву. На американском кинофестивале The Honolulu Film Awards.
    Почетный диплом кинофестиваля Дворянский мир, с медалью За заслуги с формулировкой За верность военно-патриотической теме на отечественном киноэкране – Игорю Угольникову
    Награды на Международном кинофестивале в Мумбаи в номинациях: Лучший фильм, Лучший сценарий, Лучшая женская роль и Лучший режиссер монтажа.
    Платиновая награда за художественный фильм – режиссер Дмитрий Месхиев на Азиатско-Тихоокеанском Международном кинофестивале в Джаккарте (APIFA)
    Приз Лучший дебют - Янина Малинчик, приз За лучшую роль второго плана - Ирина Рахманова на Международном фестивале актеров кино Созвездие.
    Призы в номинациях Лучший иностранный фильм, Лучший режиссер - Дмитрий Месхиев, Лучшая актриса - Мария Аронова, Лучшая операторская работа - Илья Авербах на Международном кинофестивале Brigde Film Fest,
    Приз в номинации Лучший иностранный фильм на Международном кинофестивале Catalina Film Festival
    Приз За лучшее исполнение главной роли - Мария Аронова, на международном кинофестивале в Портсмуте
    Приз продюсеру фильма Игорю Угольникову, на международном кинофестивале в Лофлине
    Гран-при, а так же победа в номинациях Лучшая актриса - Мария Аронова, Лучшая актриса второго плана - Мария Кожевникова, Лучший сценарий - Илья Авраменко на Международном кинофестиваль военного кино им.Ю.Н.Озерова
    Приз За лучшую женскую роль Марии Кожевниковой на международном кинофестивале в Ереване (Sose International Film Festival)
    - Приз За лучшее исполнение главной роли - Мария Аронова, на международном кинофестивале в Портсмуте
    Приз продюсеру фильма Игорю Угольникову, на международном кинофестивале в Лофлине
    Гран-при, а так же победа в номинациях Лучшая актриса - Мария Аронова, Лучшая актриса второго плана - Мария Кожевникова, Лучший сценарий - Илья Авраменко на Международном кинофестиваль военного кино им.Ю.Н.Озерова
    Приз За лучшую женскую роль Марии Кожевниковой на международном кинофестивале в Ереване (Sose International Film Festival)


    Скриншоты для ознакомления




    Онлайн видео Батальонъ (Батальон смерти) (2016) HDTV [H.264



    Батальонъ (Батальон смерти) (2016) HDTV [H.264/1080i] (сезон 1, серии 1-2 из 4) [Расширенная телеверсия] (обновляемая)
    загрузка...
    Рейтинг →
     (голосов: 1, оценка 3/5, голосовать можно 1 раз )

    Другие торренты по теме:

  • Батальонъ (Батальон смерти) (2016) HDTVRip (сезон 1, серии 1-2 из 4) [Расширенная телеверсия] (обновляемая)
  • Батальонъ / Батальон смерти (2015) WEB-DL [H.264 / 1080p-LQ] (серии 1-4 из 4) [Расширенная телеверсия]


    • Комментарии (0):

      Информация

      Информация

        Посетители, находящиеся в группе Гости, не могут оставлять комментарии в данной новости.

        ↓ Меню




        ↓ Опрос

        Вы добавили сайт в закладки?
        Да
        Нет


        Top 10 за месяц (Фильмы)