.
Авторизация | Регистрация
Хочешь лучшие торренты? Добавь свой email!
Добавить

Торрент скачать бесплатно

» » Весеннее обострение (2016) SATRip (серии 1-4 из 4) торрент скачать бесплатно




    Весеннее обострение (2016) SATRip (серии 1-4 из 4) торрент скачать бесплатно

    Опубликовал: Админ | Дата: 10-03-2016, 04:00 | Просмотров: 77

    Производство: Россия/СинеЛаб Продакшн
    Жанр: Комедия
    Режиссер: Марина Мигунова

    Актеры
    Максим Виторган, Валентин Смирнитский, Александр Олешко, Алика Смехова, Янина Соколовская и др.

    Описание

    Костя Мелехин преподает биологию в школе. У него нет ни жены, ни девушки. И хоть Костя живет отдельно от матери, но в ближайшем будущем ему светит перспектива поселиться с ней под одной крышей, потому что матушка решила продать свою квартиру и квартиру сына и купить большой дом. Единственный выход, который видит Константин — срочно жениться, потому что с невесткой мать жить не захочет. Бесплатный сыр, сказал кто то из толпы, к чему не понятно. Вот здесь-то и начинаются самые большие трудности, ведь найти подходящую девушку не так-то просто...
    Продолжительность: ~ 00: 44: 00 серия
    Качество видео: SATRip
    Реклама: присутствуют текстовые вставки рекламы.
    Видео: Xvid, 720x400 (16: 9), ~1500 Кбит/сек
    Аудио: MP3, 2 ch, 128 Кбит/с, CBR
    Код:

    Общее
    Полное имя : D:МОЯtorrentVesennee.obostrenie.20161.serija.avi
    Формат : AVI
    Формат/Информация : Audio Video Interleave
    Размер файла : 521 Мбайт
    Продолжительность : 44 м.
    Общий поток : 1638 Кбит/сек
    Программа кодирования : VirtualDubMod 1.5.10.3 |www.virtualdub-fr.org|| (build 2550/release)
    Библиотека кодирования : VirtualDubMod build 2550/release
    Видео
    Идентификатор : 0
    Формат : MPEG-4 Visual
    Профиль формата : Advanced Simple@L5
    Параметр BVOP формата : 2
    Параметр QPel формата : Нет
    Параметр GMC формата : Без точки перехода
    Параметр матрицы формата : Default (H.263)
    Идентификатор кодека : XVID
    Идентификатор кодека/Подсказка : XviD
    Продолжительность : 44 м.
    Битрейт : 1500 Кбит/сек
    Ширина : 720 пикселей
    Высота : 400 пикселей
    Соотношение сторон : 16:9
    Частота кадров : 25, 000 кадров/сек
    Цветовое пространство : YUV
    Субдискретизация насыщенности : 4:2:0
    Битовая глубина : 8 бит
    Тип развёртки : Прогрессивная
    Метод сжатия : С потерями
    Бит/(Пиксели*Кадры) : 0.208
    Размер потока : 478 Мбайт (92%)
    Библиотека кодирования : XviD 1.2.1 (UTC 2008-12-04)
    Аудио
    Идентификатор : 1
    Формат : MPEG Audio
    Версия формата : Version 1
    Профиль формата : Layer 3
    Режим : Joint stereo
    Расширение режима : MS Stereo
    Идентификатор кодека : 55
    Идентификатор кодека/Подсказка : MP3
    Продолжительность : 44 м.
    Вид битрейта : Постоянный
    Битрейт : 128 Кбит/сек
    Каналы : 2 канала
    Частота : 48, 0 КГц
    Метод сжатия : С потерями
    Размер потока : 40, 8 Мбайт (8%)
    Выравнивание : Соединение по промежуткам
    Продолжительность промежутка : 40 мс. (1, 00 видеокадр)
    Время предзагрузки промежутка : 504 мс.


    Скриншоты для ознакомления




    Онлайн видео Весеннее обострение (2016) SATRip (серии 1



    Весеннее обострение (2016) SATRip (серии 1-4 из 4)
    загрузка...
    Рейтинг →
     (голосов: 1, оценка 5/5, голосовать можно 1 раз )

    Другие торренты по теме:

  • VA - Созвездие весеннее - 3 (2016) [MP3|256 кб / с] <Pop, Dance, Club>
  • VA - Созвездие весеннее - 4 (2016) [MP3|256 кб / с] <Pop, Dance, Club>
  • VA - Созвездие весеннее - 5 (2016) [MP3|256 кб / с] <Pop, Dance, Club>
  • VA - Созвездие весеннее - 7 (2016) [MP3|256 кб / с] <Pop, Dance, Club>
  • VA - : Созвездие весеннее - 8 (2016) [MP3|256 кб / с] <Pop, Dance, Club>
  • Прилив / Весеннее половодье / Springfloden (2016) HDTVRip (сезон 1, серии 1-7 из 10) datynet (обновляемая)
  • Прилив / Весеннее половодье / Springfloden (2016) HDTVRip [H.264 / 720p-LQ] (сезон 1, серии 1-7 из 10) datynet (обновляемая)
  • VA - Созвездие весеннее - 9 (2016) [MP3|256 кб / с] <Pop, Dance, Club>


    • Комментарии (0):

      Информация

      Информация

        Посетители, находящиеся в группе Гости, не могут оставлять комментарии в данной новости.

        ↓ Меню




        ↓ Опрос

        Вы добавили сайт в закладки?
        Да
        Нет


        Top 10 за месяц (Фильмы)