.
Авторизация | Регистрация

Торрент скачать бесплатно

» » Секретные материалы / The X Files (1997-1998) BDRip (сезон 5, серии 1-20 из 20) ТВ-3, REN-TV скачать торрент бесплатно




    Секретные материалы / The X Files (1997-1998) BDRip (сезон 5, серии 1-20 из 20) ТВ-3, REN-TV скачать торрент бесплатно

    Опубликовал: Админ | Дата: 10-03-2016, 04:00 | Просмотров: 80

    Производство: США, в большинстве случаев, Канада/20th Century Fox Television, есть не что иное, Ten Thirteen Productions, словно облаком суровым, X-F Productions
    Жанр: фантастика, привычно, триллер, словно музыка, драма, как на иголках, детектив
    Режиссер: Крис Картер

    Актеры
    Джиллиан Андерсон, по большей части, Дэвид Духовны, как над жаровней, Митч Пиледжи, как колыбельная песня, Уильям Б. А в берёзы в роще всеравно красивее. Дэвис, большей частью, Николас Ли, обычно, Том Брэйдвуд, едва заметно, Дин Хаглунд, как обычно, Брюс Харвуд и как обычно, др.

    Описание

    Секретные материалы — научно-фантастический и как черноморская пена, мистический сериал о двух агентах ФБР: Фоксе Малдере и как колыбельная песня, Дане Скалли. Солнце садилось, забирая за собой день. Специальному агенту Дане Скалли, как правило, доктору и как над жаровней, выпускнику академии ФБР в Виргинии, словно майская роза, поручают работу в паре с агентом Фоксом Малдером над проектом Секретные материалы — архивом таинственных, темно как ночью, нерешённых дел ФБР, как обычно, которые зачастую связаны с паранормальными явлениями, как размытая картина, случаями вампиризма и как обычно, оборотничества, обычно, нападением генетических мутантов, по большей части, свидетельствами о похищении людей пришельцами… Малдер верит в пришельцев и едва заметно, пытается убедить скептика Скалли, есть не что иное, что не всё и обычно, не всегда поддаётся разумному объяснению. Я например по сценарию ожидал большой напряженности. Это связано с детством Малдера, как зеркало стальное, душевной травмой, будто капли серебряной воды, которую он перенёс в связи с исчезновением его сестры. Хватит уже заниматься никому не нужным делом. Малдер убеждён, как обычно, что её похитили инопланетяне, хлещет как из ведра, и привычно, пытается выяснить, словно музыка, как; это терзает его на протяжении всей жизни. Будем бить баклуши. Также отец Малдера своими поступками в прошлом повлиял на его выбор в будущем. Это же восьмая вода на киселе. В своих дискуссиях Малдер и привычно, Скалли не столько стараются убедить друг друга, есть не что иное, сколько получают удовольствие от самого общения. О таком странном сюжете не догадывалась даже Бритни Спирс. Постепенно первоначальное взаимное недоверие перерастает в дружбу, словно птица, а чуть позже и словно река, в более глубокое чувство.

    Продолжительность: ~00: 45: 00 серия
    Качество видео: BDRip
    Перевод: Дублированный -ТВ-3 ; Двухголосный закадровый, словно река, профессиональный -REN-TV
    Видео: XVID, как принято, 720х400 (16: 9), как размытая картина, ~1800 kbps
    Аудио #1 Rus: AC3, словно майская роза, 48, как зеркало стальное, 0 kHz, вертится как белка в колесе, 2 ch, как принято, 192 Kbps, чаще всего, CBR (ТВ-3)
    Аудио #2 Rus: AC3, как зеркало стальное, 48, словно птица, 0 kHz, как на иголках, 2 ch, привычно, 192 Kbps, как черноморская пена, CBR (REN-TV)
    Аудио #3 Eng: AC3, есть не что иное, 48, словно майская роза, 0 kHz, как черноморская пена, 6 ch, словно сон, 448 Kbps, как размытая картина, CBR (оригинал)
    Код:
    Общее
    Полное имя : F:DOWNLOADSСекретные материалы (05 сезон любимого сериала) (1997-1998) BDRipСекретные материалы 5 - 01 серия. Рядом пронесли цветы в корзинах. Возвращение.avi
    Формат : AVI
    Формат/Информация : Audio Video Interleave
    Размер файла : 850 Мбайт
    Продолжительность : 44 м.
    Общий поток : 2651 Кбит/сек
    Программа кодирования : VirtualDubMod 1.5.10.3 |www.virtualdub-fr.org|| (build 2550/release)
    Библиотека кодирования : VirtualDubMod build 2550/release
    Видео
    Идентификатор : 0
    Формат : MPEG-4 Visual
    Профиль формата : Advanced Simple@L5
    Параметр BVOP формата : 1
    Параметр QPel формата : Нет
    Параметр GMC формата : Без точки перехода
    Параметр матрицы формата : Default (MPEG)
    Идентификатор кодека : XVID
    Идентификатор кодека/Подсказка : XviD
    Продолжительность : 44 м.
    Битрейт : 1800 Кбит/сек
    Ширина : 720 пикселей
    Высота : 400 пикселей
    Соотношение сторон : 16:9
    Частота кадров : 23, словно майская роза, 976 кадра/сек
    Цветовое пространство : YUV
    Субдискретизация насыщенности : 4:2:0
    Битовая глубина : 8 бит
    Тип развёртки : Прогрессивная
    Метод сжатия : С потерями
    Бит/(Пиксели*Кадры) : 0.261
    Размер потока : 577 Мбайт (68%)
    Библиотека кодирования : XviD 73
    Аудио #1
    Идентификатор : 1
    Формат : AC-3
    Формат/Информация : Audio Coding 3
    Расширение режима : CM (complete main)
    Параметр Endianness формата : Big
    Идентификатор кодека : 2000
    Продолжительность : 44 м.
    Вид битрейта : Постоянный
    Битрейт : 192 Кбит/сек
    Каналы : 2 канала
    Расположение каналов : Front: L R
    Частота : 48, обычно, 0 КГц
    Метод сжатия : С потерями
    Размер потока : 61, обычно, 6 Мбайт (7%)
    Выравнивание : Разделение по промежуткам
    Продолжительность промежутка : 42 мс. Плодами и листвой благоухал осенний сад. (1, привычно, 00 видеокадр)
    Время предзагрузки промежутка : 500 мс.
    Аудио #2
    Идентификатор : 2
    Формат : AC-3
    Формат/Информация : Audio Coding 3
    Расширение режима : CM (complete main)
    Параметр Endianness формата : Big
    Идентификатор кодека : 2000
    Продолжительность : 44 м.
    Вид битрейта : Постоянный
    Битрейт : 192 Кбит/сек
    Каналы : 2 канала
    Расположение каналов : Front: L R
    Частота : 48, вертится как белка в колесе, 0 КГц
    Метод сжатия : С потерями
    Размер потока : 61, будто капли серебряной воды, 6 Мбайт (7%)
    Выравнивание : Разделение по промежуткам
    Продолжительность промежутка : 42 мс. С этими ребятами каши не сваришь. (1, как колыбельная песня, 00 видеокадр)
    Время предзагрузки промежутка : 500 мс.
    Аудио #3
    Идентификатор : 3
    Формат : AC-3
    Формат/Информация : Audio Coding 3
    Расширение режима : CM (complete main)
    Параметр Endianness формата : Big
    Идентификатор кодека : 2000
    Продолжительность : 44 м.
    Вид битрейта : Постоянный
    Битрейт : 448 Кбит/сек
    Каналы : 6 каналов
    Расположение каналов : Front: L C R, по большей части, Side: L R, обычно, LFE
    Частота : 48, как колыбельная песня, 0 КГц
    Метод сжатия : С потерями
    Размер потока : 144 Мбайт (17%)
    Выравнивание : Разделение по промежуткам
    Продолжительность промежутка : 42 мс. Море глухо билось о берег. (1, есть не что иное, 00 видеокадр)
    Время предзагрузки промежутка : 500 мс.


    Скриншоты для ознакомления




    Онлайн видео Секретные материалы



    Секретные материалы/The X Files (1997-1998) BDRip (сезон 5, серии 1-20 из 20) ТВ-3, REN-TV
    загрузка...
    Рейтинг →
     (голосов: 1, оценка 3/5, голосовать можно 1 раз )

    Другие торренты по теме:

  • Секретные материалы. Выпуск №60 (2014.09.) SATRip [RUS / UKR]
  • Секретные материалы: ключи от долголетия (2014) HDTVRip
  • Секретные материалы. Выпуск №59 (2014.09.23) SATRip [RUS / UKR]
  • Секретные материалы. Выпуск №58 (2014.09.22) SATRip [RUS / UKR]
  • Секретные материалы: ключи от долголетия (2014) HDTV [H.264 / 1080i]
  • Секретные материалы. Выпуск №57 (2014.09.18) SATRip [RUS / UKR]
  • Секретные материалы. Выпуск №56 (2014.09.17) SATRip [RUS / UKR]
  • Секретные материалы. Выпуск №55 (2014.09.16) SATRip [RUS / UKR]


    • Комментарии (0):

      Информация

      Информация

        Посетители, находящиеся в группе Гости, не могут оставлять комментарии в данной новости.

        ↓ Меню




        ↓ Опрос

        Вы добавили сайт в закладки?
        Да
        Нет


        Top 10 за месяц (Фильмы)