.
Авторизация | Регистрация
Хочешь лучшие торренты? Добавь свой email!
Добавить

Торрент скачать бесплатно

» » Дэмиен / Damien (2016) WEB-DLRip (сезон 1, серии 1 из 10) NewStudio (обновляемая) торрент скачать бесплатно




    Дэмиен / Damien (2016) WEB-DLRip (сезон 1, серии 1 из 10) NewStudio (обновляемая) торрент скачать бесплатно

    Опубликовал: Админ | Дата: 10-03-2016, 04:00 | Просмотров: 167

    Производство: США/20th Century Fox Television, Fox 21
    Жанр: ужасы, драма
    Режиссер: Ник Копус, Тим Эндрю, Эрнест Р. Дикерсон

    Актеры
    Омид Абтахи, Мэгалин Эчиканвоке, Барбара Херши, Брэдли Джеймс, Дэвид Мюнье, Мелани Скрофано, Майкл Терриоль, Тиффани Хайнс и др.

    Описание

    Сериал основан на культовом фильме ужасов Омен.
    Он умен, хорошо сложен и может найти выход из любой ситуации благодаря своему очарованию. Дэмиену придется принять то, что в смерти его приемных родителей виноваты он и силы зла, которые защищают его только потому, что судьбой ему предназначено стать Антихристом — самым страшным человеком на протяжении веков.

    Дата мировой премьеры: 7 марта 2016
    Продолжительность: ~00: 43: 00 серия
    Качество видео: WEB-DLRip
    Перевод: Многоголосый закадровый, профессиональный -NewStudio
    Автор перевода: Юрий Башенкер
    Видео: XviD, 720x400 (16: 9), ~1480 kb/s
    Аудио Rus: MPEG Layer 3, 48, 0 kHz, 2 ch, 128 kb/s — многоголосый закадровый
    Аудио Eng: MPEG Layer 3, 48, 0 kHz, 2 ch, 128 kb/s — оригинал
    Общее
    Полное имя : D: Дэмиен (сезон любимого сериала 1) Damien (2016) WEB-DLRip - NewStudioDamien.S01E01.WEBDLRip.Rus.Eng.DV.NewStudio.avi
    Формат : AVI
    Формат/Информация : Audio Video Interleave
    Размер файла : 541 Мбайт
    Продолжительность : 43 м.
    Общий поток : 1750 Кбит/сек
    Программа кодирования : VirtualDubModRus 1.5.10.2 (build 2542/release)
    Библиотека кодирования : VirtualDubMod build 2542/release
    Видео
    Идентификатор : 0
    Формат : MPEG-4 Visual
    Профиль формата : Advanced Simple@L5
    Параметр BVOP формата : 2
    Параметр QPel формата : Нет
    Параметр GMC формата : Без точки перехода
    Параметр матрицы формата : Default (MPEG)
    Идентификатор кодека : XVID
    Идентификатор кодека/Подсказка : XviD
    Продолжительность : 43 м.
    Битрейт : 1480 Кбит/сек
    Ширина : 720 пикселей
    Высота : 400 пикселей
    Соотношение сторон : 16: 9
    Частота кадров : 23, 976 (23976/1000) кадра/сек
    Цветовое пространство : YUV
    Субдискретизация насыщенности : 4: 2: 0
    Битовая глубина : 8 бит
    Тип развёртки : Прогрессивная
    Метод сжатия : С потерями
    Бит/(Пиксели*Кадры) : 0.214
    Размер потока : 457 Мбайт (85%)
    Библиотека кодирования : XviD 73
    Аудио #1
    Идентификатор : 1
    Формат : MPEG Audio
    Версия формата : Version 1
    Профиль формата : Layer 3
    Режим : Joint stereo
    Расширение режима : MS Stereo
    Идентификатор кодека : 55
    Идентификатор кодека/Подсказка : MP3
    Продолжительность : 43 м.
    Вид битрейта : Постоянный
    Битрейт : 128 Кбит/сек
    Каналы : 2 канала
    Частота : 48, 0 КГц
    Метод сжатия : С потерями
    Размер потока : 39, 6 Мбайт (7%)
    Выравнивание : Соединение по промежуткам
    Продолжительность промежутка : 42 мс. (1, 00 видеокадр)
    Время предзагрузки промежутка : 504 мс.
    Аудио #2
    Идентификатор : 2
    Формат : MPEG Audio
    Версия формата : Version 1
    Профиль формата : Layer 3
    Режим : Joint stereo
    Расширение режима : MS Stereo
    Идентификатор кодека : 55
    Идентификатор кодека/Подсказка : MP3
    Продолжительность : 43 м.
    Вид битрейта : Постоянный
    Битрейт : 128 Кбит/сек
    Каналы : 2 канала
    Частота : 48, 0 КГц
    Метод сжатия : С потерями
    Размер потока : 39, 6 Мбайт (7%)
    Выравнивание : Соединение по промежуткам
    Продолжительность промежутка : 42 мс. (1, 00 видеокадр)
    Время предзагрузки промежутка : 504 мс.
    Библиотека кодирования : LAME3.99.5


    Скриншоты для ознакомления




    Онлайн видео Дэмиен



    Дэмиен/Damien (2016) WEB-DLRip (сезон 1, серии 1 из 10) NewStudio (обновляемая)
    загрузка...
    Рейтинг →
     (голосов: 1, оценка 4/5, голосовать можно 1 раз )

    Другие торренты по теме:

  • Дэмиен / Damien (2016) WEB-DLRip (сезон 1, серии 1 из 10) OMSKBIRD (обновляемая)
  • Дэмиен / Damien (2016) WEB-DL [H.264 / 720p-LQ] (сезон 1, серии 1 из 10) OMSKBIRD (обновляемая)
  • Дэмиен / Damien (2016) WEB-DLRip [H.264] (сезон 1, серии 1-2 из 10) NewStudio (обновляемая)


    • Комментарии (0):

      Информация

      Информация

        Посетители, находящиеся в группе Гости, не могут оставлять комментарии в данной новости.

        ↓ Меню




        ↓ Опрос

        Вы добавили сайт в закладки?
        Да
        Нет


        Top 10 за месяц (Фильмы)