.
Авторизация | Регистрация
Хочешь лучшие торренты? Добавь свой email!
Добавить

Торрент скачать бесплатно

» » Сапожник / The Cobbler (2014) DVD5 торрент скачать бесплатно




    Сапожник / The Cobbler (2014) DVD5 торрент скачать бесплатно

    Опубликовал: Админ | Дата: 9-03-2016, 04:01 | Просмотров: 68

    Производство: США/Voltage Pictures, Golden Spike (II), Happy Madison Productions, Next Wednesday Productions
    Жанр: Фэнтези, драма, комедия
    Режиссер: Том МакКарти
    Продюсеры: Том МакКарти, Мэри Джейн Скалски, Майкл Бедерман

    Актеры
    Адам Сэндлер, Метод Мэн, Эллен Баркин, Мелони Диас, Дэн Стивенс, Фриц Уивер, Юл Васкес, Стив Бушеми, Дастин Хоффман, Линн Коэн

    Описание

    Макс Симкин занимается ремонтом обуви в Нью-Йорке. Он работает в магазине, который передавался его семьей из поколения в поколение. Однажды, разочарованный своей скучной жизнью, Макс натыкается на волшебную реликвию, которая позволяет ему увидеть мир по-новому.

    Дата мировой премьеры: 11 сентября 2014
    Продолжительность: 01: 33: 51
    Качество видео: DVD5
    Перевод: Дублированный (лицензия)
    Субтитры: Вшитые отключаемые
    Язык субтитров: Украинский
    Видео: MPEG-2, 720x576@1024x576 (PAL 16: 9), ~6100 Кбит/сек
    Аудио: AC3 5.1, 448 Кбит/сек
    Код:
    Title: The Cobbler (2014) DVD5
    Size: 4.38 Gb ( 4 590 876, 00 KBytes ) - DVD-5
    Enabled regions: 1, 2, 3, 4, 5, 6, 7, 8
    VTS_01 :
    Play Length: 00:00:00
    Video: PAL 4:3 (720x576) VBR
    Audio:
    English (Dolby AC3, 2 ch)
    VTS_02 :
    Play Length: 01:33:51
    Video: PAL 16:9 (720x576) VBR, Auto Letterboxed
    Audio:
    Russian (Dolby AC3, 6 ch)
    Subtitles:
    Ukrainian
    * Menus Information *
    VIDEO_TS Menu
    Video:
    PAL 4:3 (720x576) VBR
    English Language Unit :
    Title Menu
    VTS_01 Menu
    Video:
    PAL 16:9 (720x576) VBR
    Auto Letterboxed
    English Language Unit :
    Root Menu
    VTS_02 Menu
    Video:
    PAL 4:3 (720x576) VBR
    English Language Unit :
    Root Menu
    Код:
    Общее
    Полное имя : G:ВидеоThe Cobbler (2014) DVD5VIDEO_TSVTS_02_1.VOB
    Формат : MPEG-PS
    Размер файла : 1024 Мбайт
    Продолжительность : 21 м.
    Режим общего битрейта : Переменный
    Общий поток : 6692 Кбит/сек
    Видео
    Идентификатор : 224 (0xE0)
    Формат : MPEG Video
    Версия формата : Version 2
    Профиль формата : Main@Main
    Параметр BVOP формата : Да
    Параметр матрицы формата : Выборочная
    Параметр GOP формата : Variable
    Продолжительность : 21 м.
    Вид битрейта : Переменный
    Битрейт : 6111 Кбит/сек
    Максимальный битрейт : 7772 Кбит/сек
    Ширина : 720 пикселей
    Высота : 576 пикселей
    Соотношение сторон : 16:9
    Частота кадров : 25, 000 кадров/сек
    Стандарт вещания : PAL
    Цветовое пространство : YUV
    Субдискретизация насыщенности : 4:2:0
    Битовая глубина : 8 бит
    Тип развёртки : Прогрессивная
    Порядок развёртки : Нижнее поле первое
    Метод сжатия : С потерями
    Бит/(Пиксели*Кадры) : 0.589
    Временной код первого кадра : 00:00:00:00
    Оригинал временного кода : Group of pictures t_head
    Размер потока : 935 Мбайт (91%)
    Аудио
    Идентификатор : 189 (0xBD)-128 (0x80)
    Формат : AC-3
    Формат/Информация : Audio Coding 3
    Расширение режима : CM (complete main)
    Параметр Endianness формата : Big
    Режим смешивания : DVD-Video
    Продолжительность : 21 м.
    Вид битрейта : Постоянный
    Битрейт : 448 Кбит/сек
    Каналы : 6 каналов
    Расположение каналов : Front: L C R, Side: L R, LFE
    Частота : 48, 0 КГц
    Битовая глубина : 16 бит
    Метод сжатия : С потерями
    Размер потока : 68, 5 Мбайт (7%)
    Текст #1
    Идентификатор : 189 (0xBD)-33 (0x21)
    Формат : RLE
    Формат/Информация : Run-length encoding
    Режим смешивания : DVD-Video
    Текст #2
    Идентификатор : 189 (0xBD)-34 (0x22)
    Формат : RLE
    Формат/Информация : Run-length encoding
    Режим смешивания : DVD-Video
    Меню


    Скриншоты для ознакомления




    Онлайн видео Сапожник



    Сапожник/The Cobbler (2014) DVD5
    загрузка...
    Рейтинг →
     (голосов: 1, оценка 4/5, голосовать можно 1 раз )

    Другие торренты по теме:

  • Сапожник / The Cobbler (2014 ) WEB-DL [720p] ATV скачать через торрент бесплатно
  • Сапожник / The Cobbler (2014) WEB-DL [720p] ATV скачать через торрент бесплатно
  • Сапожник / The Cobbler (2014) WEB-DLRip [576p] iPad скачать через торрент бесплатно
  • Сапожник / The Cobbler (2014) BDRip [H.264 / 720p] скачать через торрент бесплатно
  • Сапожник / The Cobbler (2014) BDRip [H.264 / 1080p] скачать через торрент бесплатно
  • Сапожник / The Cobbler (2014) HDRip скачать через торрент бесплатно
  • Сапожник / The Cobbler (2014) HDRip скачать через торрент бесплатно
  • Сапожник / The Cobbler (2014) BDRip [H.264 / 1080p] скачать через торрент бесплатно


    • Комментарии (0):

      Информация

      Информация

        Посетители, находящиеся в группе Гости, не могут оставлять комментарии в данной новости.

        ↓ Меню




        ↓ Опрос

        Вы добавили сайт в закладки?
        Да
        Нет


        Top 10 за месяц (Фильмы)