.
Авторизация | Регистрация
Хочешь лучшие торренты? Добавь свой email!
Добавить

Торрент скачать бесплатно

» » Калигула / Caligula (1979) BDRip [H.264 / 720p-LQ] торрент скачать бесплатно




    Калигула / Caligula (1979) BDRip [H.264 / 720p-LQ] торрент скачать бесплатно

    Опубликовал: Админ | Дата: 8-03-2016, 04:01 | Просмотров: 86

    Производство: США, Италия
    Жанр: Драма, Исторический, Эротика
    Режиссер: Тинто Брасс, Боб Гуччионе, Джанкарло Луи

    Актеры
    Малкольм МакДауэлл, Тереза Энн Савой, Гуидо Маннари, Джон Гилгуд, Питер О`Тул, Джанкарло Бадесси, Бруно Бриве, Адриана Асти, Леопольдо Триесте, Паоло Боначелли

    Описание

    Высокобюджетный исторический фильм по сценарию американского писателя Гора Видала о правлении древнеримского императора Калигулы, вошедшего в историю беспримерной жестокостью, коварством и пороками, похотью, не обращающей внимания на пол. Режиссер Тинто Брасс откровенно показал то, что стояло за фасадом тяжело агонизировавшей Римской империи, некогда великой и непобедимой.
    Скандально выставлены на показ все подробности жестокого и как обычно извращенного царствования Калигулы: бесстыдное сексуальное влечение к родной сестре, женитьба на самой развратной из римских проституток, изобретательно-утонченные в своем зверстве репрессии против тех, кто мог бы встать у него на пути. Таланты Малкольма Макдауэлла и Питера О`Тула в сочетании с великолепной игрой всего актерского ансамбля и участие ослепительных красавцев в эротических сценах сделали этот непревзойденный фильм

    Продолжительность: 02: 36: 02
    Качество видео: BDRip 720p
    Перевод: Двуголосый закадровый профессиональный
    Субтитры: вшитые отключаемые
    Язык субтитров: Русский, Английский
    Видео: AVC/H.264, 1280 x 656 (1.951), ~3 014 Kbps, 23.976 fps
    Аудио 1: AC3, 6 ch, 448 kbps. 48 kHz, CBR - Русский
    Аудио 2: AC3, 2 ch, 320 kbps. 48 kHz, CBR - Английский
    Код:

    General
    Unique ID : 106920106409333214853537618135060395870 (0x5070103EDAB326261C8506D4DC09375E)
    Complete name : G:Download_GCaligula_1979_720p_BDRip.mkv
    Format : Matroska
    Format version : Version 2
    File size : 4.21 GiB
    Duration : 2h 36mn
    Overall bit rate : 3 859 Kbps
    Writing application : Lavf55.7.100
    Writing library : Lavf55.7.100
    LABEL : Chapter 1
    TCHAPTER : 73419872
    Language : eng
    Video
    ID : 1
    Format : AVC
    Format/Info : Advanced Video Codec
    Format profile : High@L4
    Format settings, CABAC : Yes
    Format settings, ReFrames : 9 frames
    Codec ID : V_MPEG4/ISO/AVC
    Duration : 2h 36mn
    Bit rate : 3 014 Kbps
    Width : 1 280 pixels
    Height : 656 pixels
    Display aspect ratio : 1.951
    Frame rate mode : Constant
    Frame rate : 23.976 fps
    Color space : YUV
    Chroma subsampling : 4:2:0
    Bit depth : 8 bits
    Scan type : Progressive
    Bits/(Pixel*Frame) : 0.150
    Stream size : 3.29 GiB (78%)
    Title : Main video
    Writing library : x264 core 75 r1251M e553a4c
    Encoding settings : cabac=1/ref=9/deblock=1:-2:-2/analyse=0x3:0x133/me=umh/subme=9/psy=1/psy_rd=1.0:0.0/mixed_ref=1/me_range=24/chroma_me=1/trellis=2/8x8dct=1/cqm=0/deadzone=21, 11/chroma_qp_offset=-2/threads=6/nr=0/decimate=0/mbaff=0/bframes=4/b_pyramid=0/b_adapt=2/b_bias=0/direct=1/wpredb=0/keyint=250/keyint_min=25/scenecut=40/rc_lookahead=40/rc=crf/mbtree=1/crf=18.0/qcomp=0.60/qpmin=10/qpmax=51/qpstep=4/ip_ratio=1.40/aq=1:1.00
    Language : English
    Default : Yes
    Forced : No
    Color range : Limited
    Matrix coefficients : BT.709
    PART_NUMBER : 0
    Audio #1
    ID : 2
    Format : AC-3
    Format/Info : Audio Coding 3
    Mode extension : CM (complete main)
    Format settings, Endianness : Big
    Codec ID : A_AC3
    Duration : 2h 36mn
    Bit rate mode : Constant
    Bit rate : 448 Kbps
    Channel(s) : 6 channels
    Channel positions : Front: L C R, Side: L R, LFE
    Sampling rate : 48.0 KHz
    Bit depth : 32 bits
    Compression mode : Lossy
    Stream size : 500 MiB (12%)
    Title : Russian
    Language : Russian
    Default : No
    Forced : No
    PART_NUMBER : 1
    Audio #2
    ID : 3
    Format : AC-3
    Format/Info : Audio Coding 3
    Mode extension : CM (complete main)
    Format settings, Endianness : Big
    Codec ID : A_AC3
    Duration : 2h 36mn
    Bit rate mode : Constant
    Bit rate : 320 Kbps
    Channel(s) : 2 channels
    Channel positions : Front: L R
    Sampling rate : 48.0 KHz
    Bit depth : 32 bits
    Compression mode : Lossy
    Stream size : 357 MiB (8%)
    Title : English
    Language : English
    Default : No
    Forced : No
    PART_NUMBER : 2
    Text #1
    ID : 4
    Format : UTF-8
    Codec ID : S_TEXT/UTF8
    Codec ID/Info : UTF-8 Plain Text
    Title : Russian
    Language : Russian
    Default : Yes
    Forced : No
    PART_NUMBER : 3
    Text #2
    ID : 5
    Format : UTF-8
    Codec ID : S_TEXT/UTF8
    Codec ID/Info : UTF-8 Plain Text
    Title : English
    Language : English
    Default : Yes
    Forced : No
    PART_NUMBER : 4
    Menu
    00:00:00.000 : :Chapter 1


    Скриншоты для ознакомления




    Онлайн видео Калигула



    Калигула/Caligula (1979) BDRip [H.264/720p-LQ]
    загрузка...
    Рейтинг →
     (голосов: 1, оценка 4/5, голосовать можно 1 раз )

    Другие торренты по теме:

  • Калигула: 1400 дней террора / Caligula: 1400 Days of Terror (2012) HDTVRip [H.264 / 720p-LQ]
  • BBC: Калигула. Что это было / Caligula with Mary Beard (2013) HDTVRip [H.264 / 720p-LQ]


    • Комментарии (0):

      Информация

      Информация

        Посетители, находящиеся в группе Гости, не могут оставлять комментарии в данной новости.

        ↓ Меню




        ↓ Опрос

        Вы добавили сайт в закладки?
        Да
        Нет


        Top 10 за месяц (Фильмы)