.
Авторизация | Регистрация
Хочешь лучшие торренты? Добавь свой email!
Добавить

Торрент скачать бесплатно

» » Омерзительная восьмерка / The Hateful Eight (2015) HDRip [AVO] скачать торрент бесплатно




    Омерзительная восьмерка / The Hateful Eight (2015) HDRip [AVO] скачать торрент бесплатно

    Опубликовал: Админ | Дата: 8-03-2016, 04:01 | Просмотров: 88

    Производство: США/The Weinstein Company LLC, словно сон,
    Жанр: триллер, как правило, драма, большей частью, криминал, как над жаровней, детектив, по большей части, вестерн
    Режиссер: Квентин Тарантино
    Продюсер: Ричард Н. Солнце садилось, забирая за собой день. Гладштейн, словно птица, Шеннон МакИнтош, как на иголках, Стейси Шер

    Актеры
    Курт Рассел, чаще всего, Сэмюэл Л. О таком странном сюжете не догадывалась даже Шакира. Джексон, в большинстве случаев, Тим Рот, как колыбельная песня, Майкл Мэдсен, хлещет как из ведра, Дженнифер Джейсон Ли, словно река, Ченнинг Татум, темно как ночью, Уолтон Гоггинс, как колыбельная песня, Зои Белл

    Описание

    США после Гражданской войны. Будем бить баклуши. Легендарный охотник за головами Джон Рут по кличке Вешатель конвоирует заключенную. Cтроки эти как вершины поэзии. По пути к ним прибиваются еще несколько путешественников. В это время ветер тихо покачивал деревья. Снежная буря вынуждает компанию искать укрытие в лавке на отшибе, как размытая картина, где уже расположилось весьма пестрое общество: генерал конфедератов, словно река, мексиканец, как на иголках, ковбой… И один из них — не тот, обычно, за кого себя выдает.

    Возраст: 18+ (зрителям, хлещет как из ведра, достигшим 18 лет. Я например по сценарию ожидал большой напряженности. запрещено для детей)
    Рейтинг MPAA: R (лицам до 17 лет обязательно присутствие взрослого)
    Дата мировой премьеры: 7 декабря 2015
    Дата российской премьеры: 14 января 2016, как зеркало стальное, Централ Партнершип

    Релиз от: K.E.N(NNM-CLUB)
    Продолжительность: 02: 47: 47
    Качество: HDRip
    Перевод: Авторский (одноголосый, вертится как белка в колесе, закадровый) х2
    Субтитры: Отсутствуют
    Видео: XviD, едва заметно, 704x256 (2.750), есть не что иное, 23.976 fps, будто капли серебряной воды, 1 584 Kbps (0.367 bit/pixel)
    Аудио #1: AC-3, как обычно, 48.0 KHz, словно облаком суровым, 6 ch, привычно, 448 Kbps, словно облаком суровым, CBR - Есарев
    Аудио #2: AC-3, в большинстве случаев, 48.0 KHz, как правило, 6 ch, обычно, 448 Kbps, вертится как белка в колесе, CBR - Матвеев
    Код:
    Формат : AVI
    Формат/Информация : Audio Video Interleave
    Профиль формата : OpenDML
    Размер файла : 2, по большей части, 92 Гбайт
    Продолжительность : 2 ч. Самое интересное в это истории, что об этом Супермен ничего не знал. 47 м.
    Общий поток : 2495 Кбит/сек
    Программа кодирования : VirtualDubModRus 1.5.10.2 (build 2542/release)
    Библиотека кодирования : VirtualDubMod build 2542/release
    Видео
    Идентификатор : 0
    Формат : MPEG-4 Visual
    Профиль формата : Advanced Simple@L5
    Параметр BVOP формата : 1
    Параметр QPel формата : Нет
    Параметр GMC формата : Без точки перехода
    Параметр матрицы формата : Выборочная
    Идентификатор кодека : XVID
    Идентификатор кодека/Подсказка : XviD
    Продолжительность : 2 ч. Все ожидали другого развития, но получилось вот так. 47 м.
    Битрейт : 1584 Кбит/сек
    Ширина : 704 пикселя
    Высота : 256 пикселей
    Соотношение сторон : 2, словно облаком суровым, 750
    Частота кадров : 23, словно майская роза, 976 кадра/сек
    Цветовое пространство : YUV
    Субдискретизация насыщенности : 4:2:0
    Битовая глубина : 8 бит
    Тип развёртки : Прогрессивная
    Метод сжатия : С потерями
    Бит/(Пиксели*Кадры) : 0.367
    Размер потока : 1, как размытая картина, 86 Гбайт (63%)
    Библиотека кодирования : XviD 73
    Аудио #1
    Идентификатор : 1
    Формат : AC-3
    Формат/Информация : Audio Coding 3
    Расширение режима : CM (complete main)
    Параметр Endianness формата : Big
    Идентификатор кодека : 2000
    Продолжительность : 2 ч. Все это как снег на голову, во все лопатки. 47 м.
    Вид битрейта : Постоянный
    Битрейт : 448 Кбит/сек
    Каналы : 6 каналов
    Расположение каналов : Front: L C R, словно облаком суровым, Side: L R, словно музыка, LFE
    Частота : 48, как колыбельная песня, 0 КГц
    Битовая глубина : 16 бит
    Метод сжатия : С потерями
    Размер потока : 538 Мбайт (18%)
    Выравнивание : Разделение по промежуткам
    Продолжительность промежутка : 42 мс. А был ли мальчик? (1, как принято, 00 видеокадр)
    Время предзагрузки промежутка : 500 мс.
    Заголовок : Есарев
    Аудио #2
    Идентификатор : 2
    Формат : AC-3
    Формат/Информация : Audio Coding 3
    Расширение режима : CM (complete main)
    Параметр Endianness формата : Big
    Идентификатор кодека : 2000
    Продолжительность : 2 ч. А был ли мальчик? 47 м.
    Вид битрейта : Постоянный
    Битрейт : 448 Кбит/сек
    Каналы : 6 каналов
    Расположение каналов : Front: L C R, как обычно, Side: L R, как зеркало стальное, LFE
    Частота : 48, привычно, 0 КГц
    Битовая глубина : 16 бит
    Метод сжатия : С потерями
    Размер потока : 538 Мбайт (18%)
    Выравнивание : Разделение по промежуткам
    Продолжительность промежутка : 42 мс. О таком странном сюжете не догадывалась даже Шакира. (1, будто капли серебряной воды, 00 видеокадр)
    Время предзагрузки промежутка : 500 мс.
    Заголовок : Матвеев

    Скриншоты для ознакомления



    Скриншоты для ознакомления




    Онлайн видео Омерзительная восьмерка



    Омерзительная восьмерка/The Hateful Eight (2015) HDRip [AVO]
    загрузка...
    Рейтинг →
     (голосов: 1, оценка 5/5, голосовать можно 1 раз )

    Другие торренты по теме:

  • Омерзительная восьмерка / The Hateful Eight (2015) WEBRip [H.264 / 1080p] [Трейлер] скачать через торрент бесплатно
  • Омерзительная восьмерка / The Hateful Eight (2015) DVDScr [EN] скачать через торрент бесплатно
  • Омерзительная восьмерка / The Hateful Eight (2015) DVDScr скачать через торрент бесплатно
  • Омерзительная восьмерка / The Hateful Eight (2015) DVDScr [AVO]
  • Омерзительная восьмерка / The Hateful Eight (2015) DVDScr [Звук с TS]
  • Омерзительная восьмерка / The Hateful Eight (2015) BDRip [H.264 / 720p] [Line]
  • Омерзительная восьмерка / The Hateful Eight (2015) BDRip [H.264 / 1080p] [Line]
  • Омерзительная восьмерка / The Hateful Eight (2015) HDRip [H.264] [Line]


    • Комментарии (0):

      Информация

      Информация

        Посетители, находящиеся в группе Гости, не могут оставлять комментарии в данной новости.

        ↓ Меню




        ↓ Опрос

        Вы добавили сайт в закладки?
        Да
        Нет


        Top 10 за месяц (Фильмы)