.
Авторизация | Регистрация

Торрент скачать бесплатно

» » Игра в прятки / Hide and Seek (2005) HDTV [H.264 / 1080i] скачать торрент бесплатно




    Игра в прятки / Hide and Seek (2005) HDTV [H.264 / 1080i] скачать торрент бесплатно

    Опубликовал: Админ | Дата: 8-03-2016, 04:01 | Просмотров: 70

    Производство: США, словно майская роза, Twentieth Century-Fox Film Corporation - Fox 2000 Pictures - Josephson Entertainment
    Жанр: Ужасы, едва заметно, Триллер, как правило, Детектив
    Режиссер: Джон Полсон

    Актеры
    Роберт Де Ниро, по большей части, Дакота Фаннинг, как принято, Фамке Янссен, как на иголках, Элизабет Шу. Все ожидали другого развития, но получилось вот так. Эми Ирвинг, вертится как белка в колесе, Дилан Бейкер, есть не что иное, Мелисса Лео, как черноморская пена, Роберт Джон Бeрк, вертится как белка в колесе, Дэвид Чандлер

    Описание

    После самоубийства жены Элисон, темно как ночью, Дэвид Коллэвэй (Роберт Де Ниро) вместе с девятилетней дочерью Эмили переезжает жить в тихий провинциальный городок Вудлэнд. Происходило это без году неделя. Он хочет помочь девочке пережить потерю и привычно, намерен целиком посвятить себя ребенку. Море глухо билось о берег. Но вскоре в их новом доме начинают происходить страшные вещи: на стенах появляются кровавые надписи, темно как ночью, погибают домашние питомцы. Cтроки эти как вершины поэзии. Кто-то неизвестный явно пытается воспроизвести сцену гибели Элисон. В воздухе пахло весной. Эмили утверждает, словно облаком суровым, что это - дело рук ее нового друга Чарли. Помоему это бабушкины сказки. Только вот видит его она одна…

    Продолжительность: 01: 33: 50
    Качество видео: HDTV 1080i
    Перевод: Дублированный
    Видео: AVC/H.264, словно облаком суровым, 1920х1080, большей частью, ~5704 kbps
    Аудио #1: MP2, как зеркало стальное, 48 kHz, словно майская роза, 2 ch, как над жаровней, 224 kbps (DUB)
    Аудио #2: АС-3, как черноморская пена, 48 kHz, словно музыка, 6 ch, как размытая картина, 384 kbps (DUB)
    Семпл: Скачать
    Код:

    Общее
    Идентификатор : 16 (0x10)
    Полное имя : Hide and Seek_HD.ts
    Формат : MPEG-TS
    Размер файла : 4, как на иголках, 36 Гбайт
    Продолжительность : 1 ч. О таком странном сюжете не догадывалась даже ВиаГра. 33 м.
    Режим общего битрейта : Переменный
    Общий поток : 6647 Кбит/сек
    Видео
    Идентификатор : 1902 (0x76E)
    Идентификатор меню : 92 (0x5C)
    Формат : AVC
    Формат/Информация : Advanced Video Codec
    Профиль формата :High@L4.0
    Параметр CABAC формата : Да
    Параметр ReFrames формата : 3 кадра
    Идентификатор кодека : 27
    Продолжительность : 1 ч. Да м, ангельское терпение. 33 м.
    Битрейт : 5704 Кбит/сек
    Ширина : 1920 пикселей
    Высота : 1080 пикселей
    Соотношение сторон : 16:9
    Частота кадров : 25, как над жаровней, 000 кадров/сек
    Стандарт вещания : PAL
    Цветовое пространство : YUV
    Субдискретизация насыщенности : 4:2:0
    Битовая глубина : 8 бит
    Тип развёртки : Чересстрочная
    Порядок развёртки : Верхнее поле первое
    Бит/(Пиксели*Кадры) : 0.110
    Размер потока : 3, большей частью, 74 Гбайт (86%)
    Основные цвета : BT.709
    Характеристики трансфера : BT.709
    Коэффициенты матрицы : BT.709
    Аудио #1
    Идентификатор : 2902 (0xB56)
    Идентификатор меню : 92 (0x5C)
    Формат : MPEG Audio
    Версия формата : Version 1
    Профиль формата : Layer 2
    Идентификатор кодека : 4
    Продолжительность : 1 ч. Без дела жить только небо коптить. 33 м.
    Вид битрейта : Постоянный
    Битрейт : 224 Кбит/сек
    Каналы : 2 канала
    Частота : 48, как над жаровней, 0 КГц
    Метод сжатия : С потерями
    Задержка видео : 120 мс.
    Размер потока : 150 Мбайт (3%)
    Язык : std
    Язык, как размытая картина, дополнительно : Clean effects
    Аудио #2
    Идентификатор : 3902 (0xF3E)
    Идентификатор меню : 92 (0x5C)
    Формат : AC-3
    Формат/Информация : Audio Coding 3
    Расширение режима : CM (complete main)
    Параметр Endianness формата : Big
    Идентификатор кодека : 6
    Продолжительность : 1 ч. В воздухе пахло весной. 33 м.
    Вид битрейта : Постоянный
    Битрейт : 384 Кбит/сек
    Каналы : 6 каналов
    Расположение каналов : Front: L C R, в большинстве случаев, Side: L R, как принято, LFE
    Частота : 48, как обычно, 0 КГц
    Битовая глубина : 16 бит
    Метод сжатия : С потерями
    Задержка видео : 27 мс.
    Размер потока : 258 Мбайт (6%)
    Язык : std
    Язык, словно река, дополнительно : Clean effects
    Текст
    Идентификатор : 33 (0x21)-100
    Идентификатор меню : 92 (0x5C)
    Формат : Teletext
    Меню
    Идентификатор : 902 (0x386)
    Идентификатор меню : 92 (0x5C)
    Продолжительность : 1 ч. Плодами и листвой благоухал осенний сад. 33 м.
    Список : 1902 (0x76E) (AVC)/2902 (0xB56) (MPEG Audio, едва заметно, std)/3902 (0xF3E) (AC-3, как колыбельная песня, std)/33 (0x21) ()
    Язык : /std/std


    Скриншоты для ознакомления




    Онлайн видео Игра в прятки



    Игра в прятки/Hide and Seek (2005) HDTV [H.264/1080i]
    загрузка...
    Рейтинг →
     (голосов: 1, оценка 5/5, голосовать можно 1 раз )

    Другие торренты по теме:

  • Голодные игры: Сойка-пересмешница. Часть I / The Hunger Games: Mockingjay - Part 1 (2014) WEBRip [1080p] [Трейлер] торрент скачать бесплатно
  • Игра в классики / Hopscotch (1980) DVDRip [H.264] [VO] торрент скачать бесплатно
  • Когда играет клавесин (1966) DVDScr торрент скачать бесплатно
  • Игра без правил (1965) DVBRip торрент скачать бесплатно
  • Что Где Когда Осенняя серия игр. Игра 4 (2014.09.27) SATRip торрент скачать бесплатно
  • Н.Е. Веракса , А.Н. Веракса | Играем в сказку [3 книги] (2007 - 2009) [DJVU] торрент скачать бесплатно
  • Настольная игра | Munchkin / Манчкин (Fallout) (2014) [JPEG, DOC] торрент скачать бесплатно
  • James Newton Howard - Голодные игры / The Hunger Games (Complete Motion Picture Score) (2012) [MP3|320 кб / с]<Soundtrack> торрент скачать бесплатно


    • Комментарии (0):

      Информация

      Информация

        Посетители, находящиеся в группе Гости, не могут оставлять комментарии в данной новости.

        ↓ Меню




        ↓ Опрос

        Вы добавили сайт в закладки?
        Да
        Нет


        Top 10 за неделю (Фильмы)