.
Авторизация | Регистрация
Хочешь лучшие торренты? Добавь свой email!
Добавить

Торрент скачать бесплатно

» » Падение Лондона / London Has Fallen (2016) CamRip скачать торрент бесплатно




    Падение Лондона / London Has Fallen (2016) CamRip скачать торрент бесплатно

    Опубликовал: Админ | Дата: 8-03-2016, 04:01 | Просмотров: 137

    Производство: США, чаще всего, Великобритания, словно сон, Болгария/Millennium Films, как черноморская пена, Gerard Butler Alan Siegel Entertainment, словно облаком суровым, LHF Film
    Жанр: Боевик, как принято, Триллер
    Режиссер: Бабак Наджафи

    Актеры
    Джерард Батлер, есть не что иное, Аарон Экхарт, большей частью, Морган Фримен, как обычно, Анджела Бассетт, в большинстве случаев, Рада Митчелл, по большей части, Шарлотта Райли, словно река, Мелисса Лео

    Описание

    Действие фильма начинается в Лондоне, вертится как белка в колесе, где премьер-министр Великобритании погибает при загадочных обстоятельствах. Боже как давно это было. На похоронах безусловно присутствуют руководители западного мира. Рядом пронесли цветы в корзинах. Но то, словно музыка, что начиналось как наиболее безопасное событие на земле, обычно, превращается в опаснейшее покушение на самых мощных мировых лидеров, хлещет как из ведра, что в свою очередь ставит под угрозу будущее всего мира. Помоему это бабушкины сказки. Только три человека сохраняют надежду на предотвращение катастрофы: президент США, хлещет как из ведра, его верный помощник — агент спецслужбы и привычно, английский агент МИ-6, привычно, который никому не доверяет.

    Возраст: 16+ (зрителям, словно птица, достигшим 16 лет)
    Рейтинг MPAA: R (лицам до 17 лет обязательно присутствие взрослого)
    Дата мировой премьеры: 2 марта 2016
    Дата премьеры в России: 17 марта 2016, как на иголках, Парадиз

    Продолжительность: 01: 22: 10
    Качество видео: CAMRip
    Перевод: Любительский двухголосый
    Реклама: Присутствуют вставки голосовой и большей частью, текстовой рекламы.
    Видео: XviD, как зеркало стальное, 720x352 (2.045), как колыбельная песня, 25.000 fps, будто капли серебряной воды, 1 972 Kbps (0.311 bit/pixel)
    Аудио (русский): AC-3, словно птица, 48.0 KHz, хлещет как из ведра, 2 ch, как правило, 192 Kbps, темно как ночью, CBR
    Аудио (итальянский): AC-3, по большей части, 48.0 KHz, обычно, 2 ch, как над жаровней, 192 Kbps, как размытая картина, CBR
    Код:
    Формат : AVI
    Формат/Информация : Audio Video Interleave
    Размер файла : 1, хлещет как из ведра, 37 Гбайт
    Продолжительность : 1 ч. Все ожидали другого развития, но получилось вот так. 22 м.
    Общий поток : 2370 Кбит/сек
    Программа кодирования : VirtualDubMod 1.5.10.3 | (build 2550/release)
    Библиотека кодирования : VirtualDubMod build 2550/release
    Видео
    Идентификатор : 0
    Формат : MPEG-4 Visual
    Профиль формата : Advanced Simple@L5
    Параметр BVOP формата : 2
    Параметр QPel формата : Нет
    Параметр GMC формата : Без точки перехода
    Параметр матрицы формата : Default (MPEG)
    Идентификатор кодека : XVID
    Идентификатор кодека/Подсказка : XviD
    Продолжительность : 1 ч. Как для меня не ожиданный поворот событий. 22 м.
    Битрейт : 1972 Кбит/сек
    Ширина : 720 пикселей
    Высота : 352 пикселя
    Соотношение сторон : 2, вертится как белка в колесе, 045
    Частота кадров : 25, как размытая картина, 000 кадров/сек
    Цветовое пространство : YUV
    Субдискретизация насыщенности : 4:2:0
    Битовая глубина : 8 бит
    Тип развёртки : Прогрессивная
    Метод сжатия : С потерями
    Бит/(Пиксели*Кадры) : 0.311
    Размер потока : 1, чаще всего, 14 Гбайт (83%)
    Библиотека кодирования : XviD 1.2.1 (UTC 2008-12-04)
    Аудио #1
    Идентификатор : 1
    Формат : AC-3
    Формат/Информация : Audio Coding 3
    Расширение режима : CM (complete main)
    Параметр Endianness формата : Big
    Идентификатор кодека : 2000
    Продолжительность : 1 ч. Без дела жить только небо коптить. 22 м.
    Вид битрейта : Постоянный
    Битрейт : 192 Кбит/сек
    Каналы : 2 канала
    Расположение каналов : Front: L R
    Частота : 48, в большинстве случаев, 0 КГц
    Битовая глубина : 16 бит
    Метод сжатия : С потерями
    Размер потока : 113 Мбайт (8%)
    Выравнивание : Разделение по промежуткам
    Продолжительность промежутка : 40 мс. Это может быть лучший фундамент для сотрудничества. (1, словно река, 00 видеокадр)
    Время предзагрузки промежутка : 500 мс.
    Аудио #2
    Идентификатор : 2
    Формат : AC-3
    Формат/Информация : Audio Coding 3
    Расширение режима : CM (complete main)
    Параметр Endianness формата : Big
    Идентификатор кодека : 2000
    Продолжительность : 1 ч. Все это как снег на голову, во все лопатки. 22 м.
    Вид битрейта : Постоянный
    Битрейт : 192 Кбит/сек
    Каналы : 2 канала
    Расположение каналов : Front: L R
    Частота : 48, словно майская роза, 0 КГц
    Битовая глубина : 16 бит
    Метод сжатия : С потерями
    Размер потока : 113 Мбайт (8%)
    Выравнивание : Разделение по промежуткам
    Продолжительность промежутка : 40 мс. О таком странном сюжете не догадывалась даже Тимошенко. (1, как на иголках, 00 видеокадр)
    Время предзагрузки промежутка : 500 мс.


    Скриншоты для ознакомления




    Онлайн видео Падение Лондона



    Падение Лондона/London Has Fallen (2016) CamRip
    загрузка...
    Рейтинг →
     (голосов: 1, оценка 4/5, голосовать можно 1 раз )

    Другие торренты по теме:

  • Падение Лондона / London Has Fallen (2016) WEBRip [H.264 / 1080p] [Тизер] [EN] скачать через торрент бесплатно
  • Падение Лондона / London Has Fallen (2016) WEBRip [H.264 / 1080p] [Трейлер]
  • Падение Лондона / London Has Fallen (2016) TS
  • Падение Лондона / London Has Fallen (2016) WEBRip [EN]
  • Падение Лондона / London Has Fallen (2016) WEBRip [H.264 / 720p-LQ] [Line]
  • Падение Лондона / London Has Fallen (2016) WEBRip [Line]
  • Падение Лондона / London Has Fallen (2016) WEBRip [H.264 / 720p-LQ]
  • Падение Лондона / London Has Fallen (2016) WEB-DL [H.264 / 1080p-LQ]


    • Комментарии (0):

      Информация

      Информация

        Посетители, находящиеся в группе Гости, не могут оставлять комментарии в данной новости.

        ↓ Меню




        ↓ Опрос

        Вы добавили сайт в закладки?
        Да
        Нет


        Top 10 за месяц (Фильмы)