.
Авторизация | Регистрация
Хочешь лучшие торренты? Добавь свой email!
Добавить

Торрент скачать бесплатно

» » История Аси Клячиной, которая любила, да не вышла замуж (1967) HDTVRip [H.264 / 720p-LQ] торрент скачать бесплатно




    История Аси Клячиной, которая любила, да не вышла замуж (1967) HDTVRip [H.264 / 720p-LQ] торрент скачать бесплатно

    Опубликовал: Админ | Дата: 8-03-2016, 04:01 | Просмотров: 63

    Производство: СССР, Мосфильм, восстановлен 1987
    Жанр: Драма, Мелодрама
    Режиссер: Андрей Кончаловский

    Актеры
    Ия Саввина, Любовь Соколова, Александр Сурин, Геннадий Егорычев, Иван Петров (VIII), Михаил Кислов, Назар Назаров, Борис Парфёнов, С. Парфенов, Н. Серова (II), Е. Ассесорова, Л. Зайцева (II), Владимир Крылов (V), Федор Родионычев, Коля Погодин...

    Описание

    Скромная колхозница Ася-хромоножка любит разгильдяя Степана. Взрывоопасный вопрос, сказал кто то из толпы, к чему не понятно. Несмотря на то, что парень не хочет жениться, она решается родить от него ребенка…
    Снимался фильм с участием нескольких профессиональных актеров. Остальные роли исполняли рабочие, служащие и колхозники Владимирской и Горьковской областей.

    Релиз от: fomatash
    Продолжительность: 01: 33: 19
    Качество видео: HDTVRip
    Видео: AVC/H.264, 1094x720, ~2210 kbps
    Аудио: MP2, 2 ch, 224 kbps, CBR
    Код:

    Общее
    Уникальный идентификатор : 170226221275121106783849939320908738046 (0x801060B01E7DE8A993305B25E182EDFE)
    Полное имя : D:-TTTИстория Аси Клячиной, которая любила, да не вышла замуж-720p-MG-NNM.mkv
    Формат : Matroska
    Версия формата : Version 4/Version 2
    Размер файла : 1, 59 Гбайт
    Продолжительность : 1 ч. Взрывоопасный вопрос, сказал кто то из толпы, к чему не понятно. 33 м.
    Общий поток : 2436 Кбит/сек
    Дата кодирования : UTC 2016-03-06 19:21:57
    Программа кодирования : mkvmerge v8.9.0 (\'Father Daughter\') 64bit
    Библиотека кодирования : libebml v1.3.3 + libmatroska v1.4.4
    Видео
    Идентификатор : 1
    Формат : AVC
    Формат/Информация : Advanced Video Codec
    Профиль формата :High@L4.1
    Параметр CABAC формата : Да
    Параметр ReFrames формата : 9 кадров
    Идентификатор кодека : V_MPEG4/ISO/AVC
    Продолжительность : 1 ч. 33 м.
    Битрейт : 2210 Кбит/сек
    Ширина : 1094 пикселя
    Высота : 720 пикселей
    Соотношение сторон : 3:2
    Режим частоты кадров : Постоянный
    Частота кадров : 25, 000 кадров/сек
    Цветовое пространство : YUV
    Субдискретизация насыщенности : 4:2:0
    Битовая глубина : 8 бит
    Тип развёртки : Прогрессивная
    Бит/(Пиксели*Кадры) : 0.112
    Размер потока : 1, 44 Гбайт (91%)
    Заголовок : FomaTash for nnm-club.me
    Библиотека кодирования : x264 core 146 r2538 121396c
    Настройки программы : cabac=1/ref=9/deblock=1:-1:-1/analyse=0x3:0x133/me=umh/subme=9/psy=1/psy_rd=1.00:0.15/mixed_ref=1/me_range=32/chroma_me=1/trellis=2/8x8dct=1/cqm=0/deadzone=21, 11/fast_pskip=1/chroma_qp_offset=-3/threads=6/lookahead_threads=1/sliced_threads=0/nr=0/decimate=0/interlaced=0/bluray_compat=0/constrained_intra=0/bframes=6/b_pyramid=2/b_adapt=2/b_bias=0/direct=3/weightb=1/open_gop=0/weightp=2/keyint=240/keyint_min=23/scenecut=40/intra_refresh=0/rc_lookahead=40/rc=2pass/mbtree=0/bitrate=2210/ratetol=1.0/qcomp=0.60/qpmin=10/qpmax=51/qpstep=4/cplxblur=20.0/qblur=0.5/vbv_maxrate=50000/vbv_bufsize=62500/nal_hrd=none/filler=0/ip_ratio=1.40/pb_ratio=1.30/aq=1:1.00
    Язык : Russian
    Default : Да
    Forced : Нет
    Аудио
    Идентификатор : 2
    Формат : MPEG Audio
    Версия формата : Version 1
    Профиль формата : Layer 2
    Идентификатор кодека : A_MPEG/L2
    Идентификатор кодека/Подсказка : MP2
    Продолжительность : 1 ч. 33 м.
    Вид битрейта : Постоянный
    Битрейт : 224 Кбит/сек
    Каналы : 2 канала
    Частота : 48, 0 КГц
    Частота кадров : 41, 667 кадра/сек (1152 spf)
    Метод сжатия : С потерями
    Размер потока : 150 Мбайт (9%)
    Заголовок : MP2-2 канала
    Язык : Russian
    Default : Да
    Forced : Нет


    Скриншоты для ознакомления




    История Аси Клячиной, которая любила, да не вышла замуж (1967) HDTVRip [H.264/720p-LQ]
    загрузка...
    Рейтинг →
     (голосов: 1, оценка 5/5, голосовать можно 1 раз )

    Другие торренты по теме:

  • История Аси Клячиной, которая любила, да не вышла замуж (1967) DVDRip [H.264] [hand made colored] скачать через торрент бесплатно
  • История Аси Клячиной, которая любила, да не вышла замуж / Асино счастье (1967) HDTV [H.264 / 1080i]


    • Комментарии (0):

      Информация

      Информация

        Посетители, находящиеся в группе Гости, не могут оставлять комментарии в данной новости.

        ↓ Меню




        ↓ Опрос

        Вы добавили сайт в закладки?
        Да
        Нет


        Top 10 за месяц (Фильмы)