.
Авторизация | Регистрация
Хочешь лучшие торренты? Добавь свой email!
Добавить

Торрент скачать бесплатно

» » Милые бестии / Die lieben Luder (1983) DVD5 торрент скачать бесплатно




    Милые бестии / Die lieben Luder (1983) DVD5 торрент скачать бесплатно

    Опубликовал: Админ | Дата: 7-03-2016, 04:00 | Просмотров: 72

    Производство: Германия (ГДР)
    Жанр: Криминал, комедия
    Режиссер: Хельмут Крациг

    Актеры
    Рената Блюме, Регина Байер, Петер Боргельт, Карл-Герман Риссе, Каспар Эйхель, Гюнтер Юнгханс, Клаус Манхен, Гюнтер Шуберт, Хорст Вайнхаймер, Альфред Штруве

    Описание

    Две молодые девушки работают на заводе, а в свободное время приглашают в гости мужчин и шантажируют их сделанными во время свидания фотографиями. Самое интересное в это истории, что об этом Супермен ничего не знал. Однажды они попадают в неприятную историю и как обычно им приходится обратиться к знакомому полицейскому...

    Продолжительность: 01: 19: 58
    Качество видео: DVD5
    Перевод: Дублированный (советский дубляж)
    Субтитры: Нет
    Дополнительные материалы: Нет
    Видео: PAL 4: 3 (720x576@768x576), ~5455 Kbps, 25 fps
    Аудио#1: Русский (Dolby AC3, 2/0ch, 192 Kbps)
    Аудио#2: Немецкий (Dolby AC3, 2/0ch, 192 Kbps)
    Сэмпл: Ссылка
    Title:
    Size: 3.36 Gb ( 3 524 378 KBytes ) - DVD-5
    Enabled regions: 1, 2, 3, 4, 5, 6, 7, 8
    VTS_01 :
    Play Length: 01: 19: 58
    Video: PAL 4: 3 (720x576) VBR
    Audio:
    Russian (Dolby AC3, 2 ch)
    Deutsch (Dolby AC3, 2 ch)
    Код:

    Общее
    Полное имя : F:[NNM-Club.me]_Die.lieben.Luder.1983.DVD5_maroder1VIDEO_TSVTS_01_1.VOB
    Формат : MPEG-PS
    Размер файла : 1024 Мбайт
    Продолжительность : 24 м.
    Режим общего битрейта : Переменный
    Общий поток : 5957 Кбит/сек
    Видео
    Идентификатор : 224 (0xE0)
    Формат : MPEG Video
    Версия формата : Version 2
    Профиль формата : Main@Main
    Параметр BVOP формата : Да
    Параметр матрицы формата : Выборочная
    Параметр GOP формата : M=3, N=12
    Продолжительность : 24 м.
    Вид битрейта : Переменный
    Битрейт : 5455 Кбит/сек
    Максимальный битрейт : 7000 Кбит/сек
    Ширина : 720 пикселей
    Высота : 576 пикселей
    Соотношение сторон : 4:3
    Частота кадров : 25, 000 кадров/сек
    Стандарт вещания : PAL
    Цветовое пространство : YUV
    Субдискретизация насыщенности : 4:2:0
    Битовая глубина : 8 бит
    Тип развёртки : Чересстрочная
    Порядок развёртки : Нижнее поле первое
    Метод сжатия : С потерями
    Бит/(Пиксели*Кадры) : 0.526
    Размер потока : 938 Мбайт (92%)
    Основные цвета : BT.601 PAL
    Характеристики трансфера : BT.470 System B, BT.470 System G
    Коэффициенты матрицы : BT.601
    Аудио #1
    Идентификатор : 189 (0xBD)-128 (0x80)
    Формат : AC-3
    Формат/Информация : Audio Coding 3
    Расширение режима : CM (complete main)
    Параметр Endianness формата : Big
    Режим смешивания : DVD-Video
    Продолжительность : 24 м.
    Вид битрейта : Постоянный
    Битрейт : 192 Кбит/сек
    Каналы : 2 канала
    Расположение каналов : Front: L R
    Частота : 48, 0 КГц
    Битовая глубина : 16 бит
    Метод сжатия : С потерями
    Размер потока : 33, 0 Мбайт (3%)
    Аудио #2
    Идентификатор : 189 (0xBD)-129 (0x81)
    Формат : AC-3
    Формат/Информация : Audio Coding 3
    Расширение режима : CM (complete main)
    Параметр Endianness формата : Big
    Режим смешивания : DVD-Video
    Продолжительность : 24 м.
    Вид битрейта : Постоянный
    Битрейт : 192 Кбит/сек
    Каналы : 2 канала
    Расположение каналов : Front: L R
    Частота : 48, 0 КГц
    Битовая глубина : 16 бит
    Метод сжатия : С потерями
    Размер потока : 33, 0 Мбайт (3%)
    Меню


    Скриншоты для ознакомления




    Онлайн видео Милые бестии



    Милые бестии/Die lieben Luder (1983) DVD5
    загрузка...
    Рейтинг →
     (голосов: 1, оценка 4/5, голосовать можно 1 раз )

    Другие торренты по теме:

  • Милые обманщицы / Pretty Little Liars (2014) WEB-DLRip (Сезон 5 / Серии 1-12 из 25()) NewStudio (обновляемая) скачать через торрент бесплатно
  • Милые кости / The Lovely Bones (2009) BDRip [720p] скачать через торрент бесплатно
  • Милые обманщицы / Pretty Little Liars (2015) WEB-DLRip (сезон 6, серии 1 из 20()) NewStudio (обновляемая) скачать через торрент бесплатно
  • Милые и опасные / Sevimli Tehlikeli (2015) WEBRip скачать через торрент бесплатно
  • Сара Шепард | Милые обманщицы (2015) [FB2]
  • Картинки - Милые щеночки. 4535x2550 - 5184x2916 - 15 шт [JPG]
  • Картинки - Милые щеночки-2. 4498x2530 - 5184x2916 - 15 шт [JPG]
  • Картинки - Милые щеночки-3. 2500x1406 - 20 шт [JPG]


    • Комментарии (0):

      Информация

      Информация

        Посетители, находящиеся в группе Гости, не могут оставлять комментарии в данной новости.

        ↓ Меню




        ↓ Опрос

        Вы добавили сайт в закладки?
        Да
        Нет


        Top 10 за месяц (Фильмы)