.
Авторизация | Регистрация
Хочешь лучшие торренты? Добавь свой email!
Добавить

Торрент скачать бесплатно

» » Пышка (1934) SATRip [H.264] торрент скачать бесплатно




    Пышка (1934) SATRip [H.264] торрент скачать бесплатно

    Опубликовал: Админ | Дата: 7-03-2016, 04:00 | Просмотров: 73

    Фильм озвучен в 1955 году.
    Производство: СССР, Мосфильм
    Жанр: Cоциальная драма, экранизация
    Режиссер: Михаил Ромм

    Актеры
    Галина Сергеева, Андрей Файт, Анатолий Горюнов, Фаина Раневская, Пётр Репнин, Татьяна Окуневская, Михаил Мухин, Евгения Мезенцева, Софья Левитина, Нина Сухотская, Владимир Лавринович...

    Описание

    Экранизация одноименной новеллы Ги де Мопассана. О таком странном сюжете не догадывалась даже Бейонсе. Франко-прусская война 1870 года. Компания французских буржуа едет по оккупированной немцами территории в одном дилижансе с дамой полусвета…

    Релиз от :

    Продолжительность: 01: 03: 18
    Качество видео: SATRip
    Видео: AVC/H.264, 698x572@745x572, ~2277 kbps
    Аудио: MP2, 2 ch, 192 kbps, CBR
    Код:

    Общее
    Уникальный идентификатор : 180814833187199594473747960116837821987 (0x8807AB8FC45D4724A20C824E244B2E23)
    Полное имя : D:-TTTПышка-Sat-MG-NNM.mkv
    Формат : Matroska
    Версия формата : Version 4/Version 2
    Размер файла : 1, 09 Гбайт
    Продолжительность : 1 ч. 3 м.
    Общий поток : 2471 Кбит/сек
    Дата кодирования : UTC 2016-02-16 09:22:42
    Программа кодирования : mkvmerge v8.8.0 (\'Wind at my back\') 32bit
    Библиотека кодирования : libebml v1.3.3 + libmatroska v1.4.4
    Видео
    Идентификатор : 1
    Формат : AVC
    Формат/Информация : Advanced Video Codec
    Профиль формата :High@L4.1
    Параметр CABAC формата : Да
    Параметр ReFrames формата : 15 кадров
    Идентификатор кодека : V_MPEG4/ISO/AVC
    Продолжительность : 1 ч. 3 м.
    Битрейт : 2277 Кбит/сек
    Ширина : 698 пикселей
    Высота : 572 пикселя
    Соотношение сторон : 4:3
    Режим частоты кадров : Постоянный
    Частота кадров : 25, 000 кадров/сек
    Цветовое пространство : YUV
    Субдискретизация насыщенности : 4:2:0
    Битовая глубина : 8 бит
    Тип развёртки : Прогрессивная
    Бит/(Пиксели*Кадры) : 0.228
    Размер потока : 1, 01 Гбайт (92%)
    Заголовок : FomaTash for nnm-club.me
    Библиотека кодирования : x264 core 146 r2538 121396c
    Настройки программы : cabac=1/ref=15/deblock=1:-1:-1/analyse=0x3:0x133/me=umh/subme=9/psy=1/psy_rd=1.00:0.15/mixed_ref=1/me_range=32/chroma_me=1/trellis=2/8x8dct=1/cqm=0/deadzone=21, 11/fast_pskip=1/chroma_qp_offset=-3/threads=6/lookahead_threads=1/sliced_threads=0/nr=0/decimate=0/interlaced=0/bluray_compat=0/constrained_intra=0/bframes=13/b_pyramid=2/b_adapt=2/b_bias=0/direct=3/weightb=1/open_gop=0/weightp=2/keyint=240/keyint_min=23/scenecut=40/intra_refresh=0/rc_lookahead=40/rc=2pass/mbtree=0/bitrate=2277/ratetol=1.0/qcomp=0.60/qpmin=10/qpmax=51/qpstep=4/cplxblur=20.0/qblur=0.5/vbv_maxrate=50000/vbv_bufsize=62500/nal_hrd=none/filler=0/ip_ratio=1.40/pb_ratio=1.30/aq=1:1.00
    Язык : Russian
    Default : Да
    Forced : Нет
    Аудио
    Идентификатор : 2
    Формат : MPEG Audio
    Версия формата : Version 1
    Профиль формата : Layer 2
    Идентификатор кодека : A_MPEG/L2
    Идентификатор кодека/Подсказка : MP2
    Продолжительность : 1 ч. 3 м.
    Вид битрейта : Постоянный
    Битрейт : 192 Кбит/сек
    Каналы : 2 канала
    Частота : 48, 0 КГц
    Частота кадров : 41, 667 кадра/сек (1152 spf)
    Метод сжатия : С потерями
    Размер потока : 86, 9 Мбайт (8%)
    Заголовок : MP2-2 канала
    Язык : Russian
    Default : Да
    Forced : Нет


    Скриншоты для ознакомления




    Онлайн видео Храни её, любовь (2014) HDTVRip [H.264



    Пышка (1934) SATRip [H.264]
    загрузка...
    Рейтинг →
     (голосов: 1, оценка 3/5, голосовать можно 1 раз )

    Другие торренты по теме:

  • Ги де Мопассан | Пышка (1980) [MP3]


    • Комментарии (0):

      Информация

      Информация

        Посетители, находящиеся в группе Гости, не могут оставлять комментарии в данной новости.

        ↓ Меню




        ↓ Опрос

        Вы добавили сайт в закладки?
        Да
        Нет


        Top 10 за месяц (Фильмы)