.
Авторизация | Регистрация
Хочешь лучшие торренты? Добавь свой email!
Добавить

Торрент скачать бесплатно

» » Человек с ружьём (1938) SATRip [H.264] торрент скачать бесплатно




    Человек с ружьём (1938) SATRip [H.264] торрент скачать бесплатно

    Опубликовал: Админ | Дата: 7-03-2016, 04:00 | Просмотров: 47

    Производство: СССР, Ленфильм
    Жанр: Биография, военный, драма, исторический
    Режиссер: Сергей Юткевич, Павел Арманд, Мария Итина

    Актеры
    Максим Штраух, Борис Тенин, Владимир Лукин, Зоя Фёдорова, Борис Чирков, Николай Черкасов, Николай Соснин, Серафима Бирман, Марк Бернес, Степан Каюков, Дмитрий Андреев, Павел Суханов, Константин Сорокин...

    Описание

    События происходят в 1917 году во время Октябрьской революции. На фронтах тяжёлое положение, к столице подступают войска генерала Краснова. Бывший крестьянин, а ныне солдат Иван Шадрин направлен с фронта в революционный Петроград с письмом и вопросами своих товарищей по оружию.

    Релиз от: fomatash
    Продолжительность: 01: 26: 35
    Качество видео: SATRip
    Перевод: Не требуется
    Субтитры: Отсутствуют
    Видео: AVC/H.264, 698x574@744x574, ~2310 kbps
    Аудио: MP2, 2 ch, 192 kbps, CBR
    Код:

    Общее
    Уникальный идентификатор : 176100510019225123604874675008999374594 (0x847BB97BE5FB39A0BBEB8B2D7521BF02)
    Полное имя : D:-TTTЧеловек с ружьём-Sat-MG-NNM.mkv
    Формат : Matroska
    Версия формата : Version 4/Version 2
    Размер файла : 1, 51 Гбайт
    Продолжительность : 1 ч. 26 м.
    Общий поток : 2504 Кбит/сек
    Дата кодирования : UTC 2016-02-16 09:35:09
    Программа кодирования : mkvmerge v8.8.0 (\'Wind at my back\') 32bit
    Библиотека кодирования : libebml v1.3.3 + libmatroska v1.4.4
    Видео
    Идентификатор : 1
    Формат : AVC
    Формат/Информация : Advanced Video Codec
    Профиль формата :High@L4.1
    Параметр CABAC формата : Да
    Параметр ReFrames формата : 14 кадров
    Идентификатор кодека : V_MPEG4/ISO/AVC
    Продолжительность : 1 ч. 26 м.
    Битрейт : 2310 Кбит/сек
    Ширина : 698 пикселей
    Высота : 574 пикселя
    Соотношение сторон : 1, 296
    Соотношение сторон в оригинале : 1, 297
    Режим частоты кадров : Постоянный
    Частота кадров : 25, 000 кадров/сек
    Цветовое пространство : YUV
    Субдискретизация насыщенности : 4:2:0
    Битовая глубина : 8 бит
    Тип развёртки : Прогрессивная
    Бит/(Пиксели*Кадры) : 0.231
    Размер потока : 1, 40 Гбайт (92%)
    Заголовок : FomaTash for nnm-club.me
    Библиотека кодирования : x264 core 146 r2538 121396c
    Настройки программы : cabac=1/ref=14/deblock=1:-1:-1/analyse=0x3:0x133/me=umh/subme=9/psy=1/psy_rd=1.00:0.15/mixed_ref=1/me_range=32/chroma_me=1/trellis=2/8x8dct=1/cqm=0/deadzone=21, 11/fast_pskip=1/chroma_qp_offset=-3/threads=6/lookahead_threads=1/sliced_threads=0/nr=0/decimate=0/interlaced=0/bluray_compat=0/constrained_intra=0/bframes=11/b_pyramid=2/b_adapt=2/b_bias=0/direct=3/weightb=1/open_gop=0/weightp=2/keyint=240/keyint_min=23/scenecut=40/intra_refresh=0/rc_lookahead=40/rc=2pass/mbtree=0/bitrate=2310/ratetol=1.0/qcomp=0.60/qpmin=10/qpmax=51/qpstep=4/cplxblur=20.0/qblur=0.5/vbv_maxrate=50000/vbv_bufsize=62500/nal_hrd=none/filler=0/ip_ratio=1.40/pb_ratio=1.30/aq=1:1.00
    Язык : Russian
    Default : Да
    Forced : Нет
    Аудио
    Идентификатор : 2
    Формат : MPEG Audio
    Версия формата : Version 1
    Профиль формата : Layer 2
    Идентификатор кодека : A_MPEG/L2
    Идентификатор кодека/Подсказка : MP2
    Продолжительность : 1 ч. 26 м.
    Вид битрейта : Постоянный
    Битрейт : 192 Кбит/сек
    Каналы : 2 канала
    Частота : 48, 0 КГц
    Частота кадров : 41, 667 кадра/сек (1152 spf)
    Метод сжатия : С потерями
    Размер потока : 119 Мбайт (8%)
    Заголовок : MP2-2 канала
    Язык : Russian
    Default : Да
    Forced : Нет


    Скриншоты для ознакомления




    Онлайн видео Девушка без адреса (1957) HDTV [H.264



    Человек с ружьём (1938) SATRip [H.264]
    загрузка...
    Рейтинг →
     (голосов: 1, оценка 3/5, голосовать можно 1 раз )

    Другие торренты по теме:

  • Невероятно огромный человек / The Amazing Colossal Man (1957) DVDRip [VO]
  • Человек тьмы 3: Умри, Человек тьмы / Darkman 3: Die Darkman Die (1996) HDRip [H.264]
  • Железный человек 3 / Iron Man 3 (2013) BDRemux 3D [1080p] [3D / 2D]
  • Человек ноября / The November Man (2014) WEBRip [Звук с CamRip]
  • Неудобный человек (1978) TVRip (2 серии)
  • Хороший человек / A Good Man (2014) BDRip [576p] iPad
  • Новый Человек-паук: Высокое напряжение / The Amazing Spider-Man 2 (2014) BDRip [576p] iPad
  • Человек ноября / The November Man (2014) HDTVRip [H.264 / 720p-LQ] [Line]


    • Комментарии (0):

      Информация

      Информация

        Посетители, находящиеся в группе Гости, не могут оставлять комментарии в данной новости.

        ↓ Меню




        ↓ Опрос

        Вы добавили сайт в закладки?
        Да
        Нет


        Top 10 за месяц (Фильмы)