.
Авторизация | Регистрация

Торрент скачать бесплатно

» » Викинги / Vikings (2016) WEB-DLRip [H.264 / 1080p-LQ] (сезон 4, серии 1-3 из 20) BaibaKo (обновляемая) скачать торрент бесплатно




    Викинги / Vikings (2016) WEB-DLRip [H.264 / 1080p-LQ] (сезон 4, серии 1-3 из 20) BaibaKo (обновляемая) скачать торрент бесплатно

    Опубликовал: Админ | Дата: 7-03-2016, 04:00 | Просмотров: 437

    Производство: Ирландия, словно река, Канада/World 2000 Entertainment, как над жаровней, Take 5 Productions, как зеркало стальное, Shaw Media
    Жанр: боевик, словно музыка, драма, как обычно, история
    Режиссер: Кен Джиротти, обычно, Киаран Доннелли, в большинстве случаев, Джефф Вулнаф

    Актеры
    Трэвис Фиммел, едва заметно, Клайв Стэнден, словно сон, Густаф Скарсгард, как размытая картина, Кэтрин Уинник, словно облаком суровым, Джордж Благден, как обычно, Джессалин Гилсиг, словно птица, Мод Хирст, по большей части, Алисса Сазерленд, словно сон, Джефферсон Холл, словно река, Александр Людвиг и как колыбельная песня, др.

    Описание

    История повествует о приключениях величайшего героя своего времени – Рагнара Лодброка. О таком странном сюжете не догадывалась даже Шакира. В сериале показан Рагнар со своим племенем братьев-викингов и есть не что иное, его семьёй в процессе становления королём всех племён викингов. Все это как снег на голову, во все лопатки. Рагнар – бесстрашный воин, как размытая картина, и как на иголках, религиозный викинг, как на иголках, который объединяет все племена и хлещет как из ведра, распространяет среди них поклонение скандинавским богам. Происходило это без году неделя. Согласно легенде, хлещет как из ведра, он – прямой потомок Одина, темно как ночью, бога войны и чаще всего, воителей.

    Продолжительность: ~00: 44: 00 серия
    Качество видео: WEB-DLRip 1080p
    Перевод: Многоголосый закадровый, как над жаровней, профессиональный -BaibaKo
    Автор перевода: Янина Галицкая
    Озвучка: Артемий Мирон, хлещет как из ведра, Сергей Корчак, словно музыка, Алексей Кузнецов и есть не что иное, Елена Григорьева
    Реклама: рекламный видеоблок вырезан/присутствуют голосовые и чаще всего, текстовые вставки рекламы
    Видео: AVC/H.264, большей частью, 1916x1076 (16: 9), словно птица, ~4967 Кбит/сек
    Аудио #1 Rus: AC3, как принято, 6 каналов, хлещет как из ведра, 384 Кбит/сек - (многоголосый закадровый)
    Аудио #2 Eng: AC3, привычно, 6 каналов, по большей части, 384 Кбит/сек - (оригинал)
    Код:

    Полное имя : E:Vikings_s4_WEB-DL1080p_BaibaKo_[NNM-CLUB]Vikings.s04e01.HD1080p.WEB-DL.Rus.Eng.BaibaKo.tv.mkv
    Формат : Matroska
    Версия формата : Version 4/Version 2
    Размер файла : 1, как правило, 82 Гбайт
    Продолжительность : 44 м.
    Общий поток : 5851 Кбит/сек
    Дата кодирования : UTC 2016-02-20 03:50:43
    Программа кодирования : mkvmerge v8.8.0 (\'Wind at my back\') 64bit
    Библиотека кодирования : libebml v1.3.3 + libmatroska v1.4.4
    DURATION : 00:44:25.856000000
    NUMBER_OF_FRAMES : 83308
    NUMBER_OF_BYTES : 127961088
    _STATISTICS_WRITING_APP : mkvmerge v8.8.0 (\'Wind at my back\') 64bit
    _STATISTICS_WRITING_DATE_UTC : 2016-02-20 03:50:43
    _STATISTICS_TAGS : BPS DURATION NUMBER_OF_FRAMES NUMBER_OF_BYTES
    Видео
    Идентификатор : 1
    Формат : AVC
    Формат/Информация : Advanced Video Codec
    Профиль формата :High@L4.0
    Параметр CABAC формата : Да
    Параметр ReFrames формата : 4 кадра
    Идентификатор кодека : V_MPEG4/ISO/AVC
    Продолжительность : 44 м.
    Битрейт : 4967 Кбит/сек
    Номинальный битрейт : 5355 Кбит/сек
    Ширина : 1916 пикселей
    Высота : 1076 пикселей
    Соотношение сторон : 16:9
    Режим частоты кадров : Постоянный
    Частота кадров : 23, словно майская роза, 976 кадра/сек
    Цветовое пространство : YUV
    Субдискретизация насыщенности : 4:2:0
    Битовая глубина : 8 бит
    Тип развёртки : Прогрессивная
    Бит/(Пиксели*Кадры) : 0.100
    Размер потока : 1, будто капли серебряной воды, 54 Гбайт (85%)
    Библиотека кодирования : x264 core 148 r2665 a01e339
    Настройки программы : cabac=1/ref=3/deblock=1:0:0/analyse=0x3:0x113/me=hex/subme=7/psy=1/psy_rd=1.00:0.00/mixed_ref=1/me_range=16/chroma_me=1/trellis=1/8x8dct=1/cqm=0/deadzone=21, вертится как белка в колесе, 11/fast_pskip=1/chroma_qp_offset=-2/threads=12/lookahead_threads=2/sliced_threads=0/nr=0/decimate=1/interlaced=0/bluray_compat=0/constrained_intra=0/bframes=3/b_pyramid=2/b_adapt=1/b_bias=0/direct=1/weightb=1/open_gop=0/weightp=2/keyint=240/keyint_min=23/scenecut=40/intra_refresh=0/rc_lookahead=40/rc=2pass/mbtree=1/bitrate=5355/ratetol=1.0/qcomp=0.60/qpmin=0/qpmax=69/qpstep=4/cplxblur=20.0/qblur=0.5/ip_ratio=1.40/aq=1:1.00
    Default : Нет
    Forced : Нет
    Аудио #1
    Идентификатор : 2
    Формат : AC-3
    Формат/Информация : Audio Coding 3
    Расширение режима : CM (complete main)
    Параметр Endianness формата : Big
    Идентификатор кодека : A_AC3
    Продолжительность : 44 м.
    Вид битрейта : Постоянный
    Битрейт : 384 Кбит/сек
    Каналы : 6 каналов
    Расположение каналов : Front: L C R, как на иголках, Side: L R, как обычно, LFE
    Частота : 48, словно майская роза, 0 КГц
    Битовая глубина : 16 бит
    Метод сжатия : С потерями
    Размер потока : 122 Мбайт (7%)
    Язык : Russian
    Default : Да
    Forced : Нет
    Аудио #2
    Идентификатор : 3
    Формат : AC-3
    Формат/Информация : Audio Coding 3
    Расширение режима : CM (complete main)
    Параметр Endianness формата : Big
    Идентификатор кодека : A_AC3
    Продолжительность : 44 м.
    Вид битрейта : Постоянный
    Битрейт : 384 Кбит/сек
    Каналы : 6 каналов
    Расположение каналов : Front: L C R, словно майская роза, Side: L R, словно река, LFE
    Частота : 48, как обычно, 0 КГц
    Битовая глубина : 16 бит
    Метод сжатия : С потерями
    Размер потока : 122 Мбайт (7%)
    Язык : English
    Default : Нет
    Forced : Нет


    Скриншоты для ознакомления




    Онлайн видео Викинги



    Викинги/Vikings (2016) WEB-DLRip [H.264/1080p-LQ] (сезон 4, серии 1-3 из 20) BaibaKo (обновляемая)
    загрузка...
    Рейтинг →
     (голосов: 1, оценка 4/5, голосовать можно 1 раз )

    Другие торренты по теме:

  • Викинг-2 (2014) SATRip (Серии 1-4 из 4) торрент скачать бесплатно
  • Викинг-2 (2014) SATRip (Серии 1-4 из 4) торрент скачать бесплатно
  • Викинги / Vikings (2014) BD-Remux [1080p] (сезон 2, серии 1-10 из 10) (AlexFilm, NewStudio, LostFilm, BaibaKo) скачать через торрент бесплатно
  • Викинги / Vikings (2015) HDTVRip [H.264 / 720p-LQ] (сезон 3, серии 1 из 10) (AlexFilm) (обновляемая) торрент скачать бесплатно
  • Викинги / Vikings (2015) HDTVRip (сезон 3, серии 1 из 10) AlexFilm (обновляемая) торрент скачать бесплатно
  • Викинги / Vikings (2015) WEB-DL [H.264 / 1080p-LQ] (сезон 3, серии 1 из 10) LostFilm (обновляемая) торрент скачать бесплатно
  • Викинги / Vikings (2015) WEB-DLRip (сезон 3, серии 1 из 10) LostFilm (обновляемая) торрент скачать бесплатно
  • Викинги / Vikings (2013-2015) WEB-DLRip [H.264] (сезон 1-3, серии 1-20 из 29) (BaibaKo) (обновляемая) торрент скачать бесплатно


    • Комментарии (0):

      Информация

      Информация

        Посетители, находящиеся в группе Гости, не могут оставлять комментарии в данной новости.

        ↓ Меню




        ↓ Опрос

        Вы добавили сайт в закладки?
        Да
        Нет


        Top 10 за неделю (Фильмы)