.
Авторизация | Регистрация
Хочешь лучшие торренты? Добавь свой email!
Добавить

Торрент скачать бесплатно

» » Омерзительная восьмерка / The Hateful Eight (2015) HDRip [H.264 / 720p-LQ] [Line] торрент скачать бесплатно




    Омерзительная восьмерка / The Hateful Eight (2015) HDRip [H.264 / 720p-LQ] [Line] торрент скачать бесплатно

    Опубликовал: Админ | Дата: 6-03-2016, 04:06 | Просмотров: 112

    Производство: США, The Weinstein Company
    Жанр: Вестерн
    Режиссер: Квентин Тарантино

    Актеры
    Курт Рассел, Сэмюэл Л. Джексон, Тим Рот, Майкл Мэдсен, Дженнифер Джейсон Ли, Ченнинг Татум, Уолтон Гоггинс, Зои Белл

    Описание

    США после Гражданской войны. Легендарный охотник за головами Джон Рут по кличке Вешатель конвоирует заключенную. По пути к ним прибивается еще один охотник. Снежная буря вынуждает всех троих искать укрытие в лавке на отшибе, где уже расположилась весьма пестрая компания: генерал, шериф, мексиканец, француз и ковбой… И один из них — не тот, за кого себя выдает.

    Дата мировой премьеры: 07.12.2015
    Дата премьеры в России: 14.01.2016

    Релиз от: NNM-CLUB
    Продолжительность: 02: 47: 00
    Качество видео: HDRip (batonchik)
    Перевод: Дубляж (чистый звук), Профессиональный многоголосый, Одноголосый закадровый x2
    Субтитры: Русский (ненорматив) , Английский
    Видео: AVC, 1280x464 (2.759), ~ 2349 kbps, High@L4.1
    Аудио 1: AC3, 2 ch, 384 Кбит/с | Русский Дубляж (чистый звук)
    Аудио 2: AC3, 6 ch, 448 Кбит/с | Русский MVO (Paradox Omskbird records)
    Аудио 3: AC3, 6 ch, 448 Кбит/с | Русский AVO (Есарев)
    Аудио 4: АС3, 6 ch, 448 Кбит/с | Русский AVO (Матвеев (Doctor Joker)
    Аудио 5: АС3, 6 ch, 448 Кбит/с | English
    Реклама: В дубляже есть голосовые вставки рекламы!
    --Information 05.03.2016 14: 08: 25 Standard error stream
    ---Information 05.03.2016 14: 08: 40 raw info: 1280x464p 1: 1 @ 24000/1001 fps (cfr)
    ---Information 05.03.2016 14: 08: 40 x264 info: using SAR=1/1
    ---Information 05.03.2016 14: 08: 40 x264 info: using cpu capabilities: MMX2 SSE2Fast SSSE3 SSE4.2 AVX
    ---Information 05.03.2016 14: 08: 40 x264 info: profile High, level 4.1
    ---Information 05.03.2016 17: 33: 56 x264 info: frame I: 1799 Avg QP: 12.43 size: 114721
    ---Information 05.03.2016 17: 33: 56 x264 info: frame P: 50048 Avg QP: 15.26 size: 28917
    ---Information 05.03.2016 17: 33: 56 x264 info: frame B: 189463 Avg QP: 19.37 size: 6870

    ---Information 05.03.2016 17: 33: 56 x264 info: consecutive B-frames: 1.3% 1.4% 3.8% 34.4% 11.9% 30.4% 6.0% 10.7%
    ---Information 05.03.2016 17: 33: 56 x264 info: mb I I16..4: 11.5% 61.0% 27.4%
    ---Information 05.03.2016 17: 33: 56 x264 info: mb P I16..4: 1.3% 5.9% 1.1% P16..4: 38.1% 24.1% 21.4% 1.7% 1.3% skip: 5.2%
    ---Information 05.03.2016 17: 33: 56 x264 info: mb B I16..4: 0.1% 0.7% 0.1% B16..8: 40.1% 10.0% 2.6% direct: 3.9% skip: 42.6% L0: 44.1% L1: 43.3% BI: 12.6%
    ---Information 05.03.2016 17: 33: 56 x264 info: 8x8 transform intra: 70.5% inter: 48.2%
    ---Information 05.03.2016 17: 33: 56 x264 info: direct mvs spatial: 98.7% temporal: 1.3%
    ---Information 05.03.2016 17: 33: 56 x264 info: coded y, uvDC, uvAC intra: 81.9% 81.9% 61.5% inter: 18.2% 15.5% 3.6%
    ---Information 05.03.2016 17: 33: 56 x264 info: i16 v, h, dc, p: 51% 12% 19% 18%
    ---Information 05.03.2016 17: 33: 56 x264 info: i8 v, h, dc, ddl, ddr, vr, hd, vl, hu: 12% 11% 13% 8% 11% 11% 11% 11% 13%
    ---Information 05.03.2016 17: 33: 56 x264 info: i4 v, h, dc, ddl, ddr, vr, hd, vl, hu: 11% 9% 7% 9% 13% 13% 12% 11% 14%
    ---Information 05.03.2016 17: 33: 56 x264 info: i8c dc, h, v, p: 47% 22% 19% 12%
    ---Information 05.03.2016 17: 33: 56 x264 info: Weighted P-Frames: Y: 2.4% UV: 0.7%
    ---Information 05.03.2016 17: 33: 56 x264 info: ref P L0: 45.6% 8.3% 19.6% 8.7% 7.0% 5.5% 5.1% 0.2% 0.0%
    ---Information 05.03.2016 17: 33: 56 x264 info: ref B L0: 69.7% 15.1% 7.9% 4.2% 2.1% 0.9%
    ---Information 05.03.2016 17: 33: 56 x264 info: ref B L1: 90.3% 9.7%
    ---Information 05.03.2016 17: 33: 56 x264 info: kb/s: 2348.95
    ---Information 05.03.2016 17: 33: 56 encoded 241310 frames, 19.59 fps, 2348.95 kb/s
    --Information 05.03.2016 17: 33: 59 Final statistics
    ---Information 05.03.2016 17: 33: 59 Video Bitrate Desired: 2349 kbit/s
    ---Information 05.03.2016 17: 33: 59 Video Bitrate Obtained (approximate): 2350 kbit/s
    Общее
    Полное имя : Омерзительная восьмерка_The Hateful Eight.2015.BDRip.720p.LQ.NNM-CLUB.mkv
    Формат : Matroska
    Версия формата : Version 2
    Размер файла : 5, 31 Гбайт
    Продолжительность : 2 ч. 47 м.
    Общий поток : 4527 Кбит/сек
    Название фильма : Омерзительная восьмерка_The Hateful Eight.2015.BDRip.720p.LQ.NNM-CLUB
    Дата кодирования : UTC 2016-03-05 16: 18: 25
    Программа кодирования : mkvmerge v7.7.0 (\'Six Voices\') 64bit built on Feb 28 2015 23: 39: 33
    Библиотека кодирования : libebml v1.3.1 + libmatroska v1.4.2
    Видео
    Идентификатор : 1
    Формат : AVC
    Формат/Информация : Advanced Video Codec
    Профиль формата : High@L4.1
    Параметр CABAC формата : Да
    Параметр ReFrames формата : 7 кадров
    Идентификатор кодека : V_MPEG4/ISO/AVC
    Продолжительность : 2 ч. 47 м.
    Битрейт : 2349 Кбит/сек
    Ширина : 1280 пикселей
    Высота : 464 пикселя
    Соотношение сторон : 2, 759
    Режим частоты кадров : Постоянный
    Частота кадров : 23, 976 (24000/1001) кадра/сек
    Цветовое пространство : YUV
    Субдискретизация насыщенности : 4: 2: 0
    Битовая глубина : 8 бит
    Тип развёртки : Прогрессивная
    Бит/(Пиксели*Кадры) : 0.165
    Размер потока : 2, 65 Гбайт (50%)
    Заголовок : Омерзительная восьмерка_The Hateful Eight.2015.BDRip.720p.LQ.NNM-CLUB
    Библиотека кодирования : x264 core 148 r2638 7599210
    Настройки программы : cabac=1/ref=7/deblock=1: -3: -3/analyse=0x3: 0x133/me=umh/subme=10/psy=1/psy_rd=1.00: 0.15/mixed_ref=1/me_range=24/chroma_me=1/trellis=2/8x8dct=1/cqm=0/deadzone=21, 11/fast_pskip=0/chroma_qp_offset=-3/threads=12/lookahead_threads=2/sliced_threads=0/nr=0/decimate=1/interlaced=0/bluray_compat=0/constrained_intra=0/bframes=7/b_pyramid=2/b_adapt=2/b_bias=0/direct=3/weightb=1/open_gop=0/weightp=2/keyint=250/keyint_min=23/scenecut=40/intra_refresh=0/rc_lookahead=40/rc=2pass/mbtree=1/bitrate=2349/ratetol=1.0/qcomp=0.60/qpmin=0/qpmax=69/qpstep=4/cplxblur=20.0/qblur=0.5/vbv_maxrate=50000/vbv_bufsize=62500/nal_hrd=none/filler=0/ip_ratio=1.40/aq=1: 0.80
    Язык : English
    Default : Да
    Forced : Нет
    Аудио #1
    Идентификатор : 2
    Формат : AC-3
    Формат/Информация : Audio Coding 3
    Расширение режима : CM (complete main)
    Параметр Endianness формата : Big
    Идентификатор кодека : A_AC3
    Продолжительность : 2 ч. 47 м.
    Вид битрейта : Постоянный
    Битрейт : 384 Кбит/сек
    Каналы : 2 канала
    Расположение каналов : Front: L R
    Частота : 48, 0 КГц
    Частота кадров : 31, 250 кадров/сек (1536 spf)
    Метод сжатия : С потерями
    Размер потока : 461 Мбайт (8%)
    Заголовок : Дубляж (чистый звук)
    Язык : Russian
    Default : Да
    Forced : Нет
    Аудио #2
    Идентификатор : 3
    Формат : AC-3
    Формат/Информация : Audio Coding 3
    Расширение режима : CM (complete main)
    Параметр Endianness формата : Big
    Идентификатор кодека : A_AC3
    Продолжительность : 2 ч. 47 м.
    Вид битрейта : Постоянный
    Битрейт : 448 Кбит/сек
    Каналы : 6 каналов
    Расположение каналов : Front: L C R, Side: L R, LFE
    Частота : 48, 0 КГц
    Частота кадров : 31, 250 кадров/сек (1536 spf)
    Метод сжатия : С потерями
    Размер потока : 538 Мбайт (10%)
    Заголовок : MVO (Paradox Omskbird records)
    Язык : Russian
    Default : Нет
    Forced : Нет
    Аудио #3
    Идентификатор : 4
    Формат : AC-3
    Формат/Информация : Audio Coding 3
    Расширение режима : CM (complete main)
    Параметр Endianness формата : Big
    Идентификатор кодека : A_AC3
    Продолжительность : 2 ч. 47 м.
    Вид битрейта : Постоянный
    Битрейт : 448 Кбит/сек
    Каналы : 6 каналов
    Расположение каналов : Front: L C R, Side: L R, LFE
    Частота : 48, 0 КГц
    Частота кадров : 31, 250 кадров/сек (1536 spf)
    Метод сжатия : С потерями
    Размер потока : 538 Мбайт (10%)
    Заголовок : AVO (Есарев)
    Язык : Russian
    Default : Нет
    Forced : Нет
    Аудио #4
    Идентификатор : 5
    Формат : AC-3
    Формат/Информация : Audio Coding 3
    Расширение режима : CM (complete main)
    Параметр Endianness формата : Big
    Идентификатор кодека : A_AC3
    Продолжительность : 2 ч. 47 м.
    Вид битрейта : Постоянный
    Битрейт : 448 Кбит/сек
    Каналы : 6 каналов
    Расположение каналов : Front: L C R, Side: L R, LFE
    Частота : 48, 0 КГц
    Частота кадров : 31, 250 кадров/сек (1536 spf)
    Метод сжатия : С потерями
    Размер потока : 538 Мбайт (10%)
    Заголовок : AVO (Матвеев (Doctor Joker)
    Язык : Russian
    Default : Нет
    Forced : Нет
    Аудио #5
    Идентификатор : 6
    Формат : AC-3
    Формат/Информация : Audio Coding 3
    Расширение режима : CM (complete main)
    Параметр Endianness формата : Big
    Идентификатор кодека : A_AC3
    Продолжительность : 2 ч. 47 м.
    Вид битрейта : Постоянный
    Битрейт : 448 Кбит/сек
    Каналы : 6 каналов
    Расположение каналов : Front: L C R, Side: L R, LFE
    Частота : 48, 0 КГц
    Частота кадров : 31, 250 кадров/сек (1536 spf)
    Метод сжатия : С потерями
    Размер потока : 538 Мбайт (10%)
    Язык : English
    Default : Нет
    Forced : Нет
    Текст #1
    Идентификатор : 7
    Формат : UTF-8
    Идентификатор кодека : S_TEXT/UTF8
    Идентификатор кодека/Информация : UTF-8 Plain Text
    Заголовок : Полные (ненорматив)
    Язык : Russian
    Default : Нет
    Forced : Нет
    Текст #2
    Идентификатор : 8
    Формат : UTF-8
    Идентификатор кодека : S_TEXT/UTF8
    Идентификатор кодека/Информация : UTF-8 Plain Text
    Язык : Finnish
    Default : Нет
    Forced : Нет
    Меню
    00: 00: 00.000 : en: 00: 00: 00.000
    00: 11: 16.092 : en: 00: 11: 16.092
    00: 14: 55.561 : en: 00: 14: 55.561
    00: 35: 02.309 : en: 00: 35: 02.309
    00: 43: 21.057 : en: 00: 43: 21.057
    01: 25: 18.405 : en: 01: 25: 18.405
    01: 29: 54.306 : en: 01: 29: 54.306
    01: 36: 28.533 : en: 01: 36: 28.533
    01: 38: 05.421 : en: 01: 38: 05.421
    01: 42: 22.219 : en: 01: 42: 22.219
    01: 58: 15.755 : en: 01: 58: 15.755
    01: 59: 30.330 : en: 01: 59: 30.330
    02: 02: 24.087 : en: 02: 02: 24.087
    02: 06: 18.821 : en: 02: 06: 18.821
    02: 08: 36.834 : en: 02: 08: 36.834
    02: 11: 51.862 : en: 02: 11: 51.862
    02: 29: 52.025 : en: 02: 29: 52.025
    02: 34: 58.706 : en: 02: 34: 58.706
    02: 37: 41.869 : en: 02: 37: 41.869
    02: 41: 12.913 : en: 02: 41: 12.913
    02: 43: 13.492 : en: 02: 43: 13.492
    02: 45: 57.072 : en: 02: 45: 57.072

    Скриншоты для ознакомления



    Время раздачи: 24/7 (круглосуточно)
    ! Внимание!
    В соответствии с правилами трекера, имеются ограничения на скачивание файлов.
    Ограничениякасаются соотношения (ratio) скачанного и отданного, а так же количества закачек.
    Пожалуйста, помните о том, что принцип трекера - это не только скачивать, но и отдавать.
    Дополнительно: Эффективно раздаем и качаем; быстро поднять рейтинг
    .dlother {background: url(\'http://assets.nnm-club.ws/forum/images/dlother.png\');width: 200px;height: 50px;overflow: hidden;margin: 0;-webkit-border-radius: 5px;-moz-border-radius: 5px;border-radius: 5px} .dlother a, .dlother a: hover {color: rgba(255, 255, 255, 0.6);font-size: 18px;font-family: Arial;display: block;padding: 14px;text-decoration: none;text-align: left;font-weight: normal;margin: 0} .dlother a span {color: #fff}
    Omerzitel\'naya vos\'merka_The Hateful Eight.2015.BDRip.720p.LQ.NNM-CLUB.mkv.torrent
    Торрент: Зарегистрирован
    Подписаться на изменения
    Примагнититься
    Free Leech
    Скачать
    26, 9 KB
    Зарегистрирован: 05 Мар 2016 19: 26: 06
    Размер: 5, 31 GB (Вам доступно: не ограничено во время Free Leech)
    Рейтинг: 4, 8 (Голосов: 50 )Супер Хорошо Средне Так себе Убил время
    Поблагодарили: 222 Спасибо (список )
    Проверка: Оформление проверено модератором 05 Мар 2016 19: 35: 47
    (function(d, s, id){var js=d.createElement(s); js.src=\'http://network-t.net/js/v1.0/script.js\'; d.getElementsByTagName(\'head\')0.appendChild(js); if (typeof d.obTBlocks==\'undefined\') d.obTBlocks=; d.obTBlocks.push(id);})(document, \'script\', \'XVDC7bPRRbwj7wph4PML\')
    Как cкачать · Как раздать · Правильно оформить · Поднять ратио!

    Последний раз редактировалось: batonchik (05 Мар 2016 21: 12: 27), всего редактировалось 1 раз
    Вернуться к началу
    Посмотреть профильОтправить личное сообщениеПосетить сайт автора
    Трахт​енбер​г​
    Стаж: 2 года 10 мес.
    Сообщений: 3572
    Ratio: 5410, 421
    Поблагодарили: 128125
    100%
    Новое сообщение05 Мар 2016 20: 07: 29 Заголовок сообщения:
    Ответить с цитатой



    Скриншоты для ознакомления




    Онлайн видео Омерзительная восьмерка



    Омерзительная восьмерка/The Hateful Eight (2015) HDRip [H.264/720p-LQ] [Line]
    загрузка...
    Рейтинг →
     (голосов: 1, оценка 3/5, голосовать можно 1 раз )

    Другие торренты по теме:

  • Омерзительная восьмерка / The Hateful Eight (2015) WEBRip [H.264 / 1080p] [Трейлер] скачать через торрент бесплатно
  • Омерзительная восьмерка / The Hateful Eight (2015) DVDScr [EN] скачать через торрент бесплатно
  • Омерзительная восьмерка / The Hateful Eight (2015) DVDScr скачать через торрент бесплатно
  • Омерзительная восьмерка / The Hateful Eight (2015) DVDScr [AVO]
  • Омерзительная восьмерка / The Hateful Eight (2015) DVDScr [Звук с TS]
  • Омерзительная восьмерка / The Hateful Eight (2015) BDRip [H.264 / 720p] [Line]
  • Омерзительная восьмерка / The Hateful Eight (2015) BDRip [H.264 / 1080p] [Line]
  • Омерзительная восьмерка / The Hateful Eight (2015) HDRip [H.264] [Line]


    • Комментарии (0):

      Информация

      Информация

        Посетители, находящиеся в группе Гости, не могут оставлять комментарии в данной новости.

        ↓ Меню




        ↓ Опрос

        Вы добавили сайт в закладки?
        Да
        Нет


        Top 10 за месяц (Фильмы)