.
Авторизация | Регистрация
Хочешь лучшие торренты? Добавь свой email!
Добавить

Торрент скачать бесплатно

» » Девушка без адреса (1957) HDTVRip [H.264 / 720p-LQ] торрент скачать бесплатно




    Девушка без адреса (1957) HDTVRip [H.264 / 720p-LQ] торрент скачать бесплатно

    Опубликовал: Админ | Дата: 6-03-2016, 04:06 | Просмотров: 74

    Производство: СССР, Мосфильм
    Жанр: Комедия, мелодрама, музыкальный
    Режиссер: Эльдар Рязанов

    Актеры
    Светлана Карпинская, Николай Рыбников, Эраст Гарин, Василий Топорков, Юрий Белов, Светлана Тарасова, Зоя Фёдорова, Сергей Филиппов, Павел Тарасов, Рина Зелёная...

    Описание

    Забавные приключения молодого строителя Паши Гусарова начались с того момента, когда в поезде он встретил и полюбил с первого взгляда Катю, которая едет завоевывать Москву. Счастье делает человека беспечным, а вокзал - это как раз то место, где его можно потерять. Но именно на вокзале после всевозможных приключений они встречаются вновь и теперь не расстанутся никогда.

    Релиз от : fomatash
    Продолжительность: 01: 25: 03
    Качество видео: HDTVRip
    Перевод: Не требуется (русский)
    Субтитры: Отсутствуют
    Видео: AVC/H.264, 1252x720, ~4038 kbps
    Аудио: MP2, 2 ch, 224 kbps, CBR
    Код:

    Общее
    Уникальный идентификатор : 219369969290494347648398779807118572769 (0xA5091E88D849FBFCA2F4516560E6BCE1)
    Полное имя : D:-TTTДевушка без адреса-720p-MG-NNM.mkv
    Формат : Matroska
    Версия формата : Version 4/Version 2
    Размер файла : 2, 53 Гбайт
    Продолжительность : 1 ч. 25 м.
    Общий поток : 4264 Кбит/сек
    Дата кодирования : UTC 2016-02-23 20:33:51
    Программа кодирования : mkvmerge v8.8.0 (\'Wind at my back\') 64bit
    Библиотека кодирования : libebml v1.3.3 + libmatroska v1.4.4
    Видео
    Идентификатор : 1
    Формат : AVC
    Формат/Информация : Advanced Video Codec
    Профиль формата :High@L4.1
    Параметр CABAC формата : Да
    Параметр ReFrames формата : 8 кадров
    Идентификатор кодека : V_MPEG4/ISO/AVC
    Продолжительность : 1 ч. 25 м.
    Битрейт : 4038 Кбит/сек
    Ширина : 1252 пикселя
    Высота : 720 пикселей
    Соотношение сторон : 1, 739
    Режим частоты кадров : Постоянный
    Частота кадров : 25, 000 кадров/сек
    Цветовое пространство : YUV
    Субдискретизация насыщенности : 4:2:0
    Битовая глубина : 8 бит
    Тип развёртки : Прогрессивная
    Бит/(Пиксели*Кадры) : 0.179
    Размер потока : 2, 40 Гбайт (95%)
    Заголовок : FomaTash for nnm-club.me
    Библиотека кодирования : x264 core 146 r2538 121396c
    Настройки программы : cabac=1/ref=8/deblock=1:-1:-1/analyse=0x3:0x133/me=umh/subme=9/psy=1/psy_rd=1.00:0.15/mixed_ref=1/me_range=32/chroma_me=1/trellis=2/8x8dct=1/cqm=0/deadzone=21, 11/fast_pskip=1/chroma_qp_offset=-3/threads=6/lookahead_threads=1/sliced_threads=0/nr=0/decimate=0/interlaced=0/bluray_compat=0/constrained_intra=0/bframes=5/b_pyramid=2/b_adapt=2/b_bias=0/direct=3/weightb=1/open_gop=0/weightp=2/keyint=240/keyint_min=23/scenecut=40/intra_refresh=0/rc_lookahead=40/rc=2pass/mbtree=0/bitrate=4038/ratetol=1.0/qcomp=0.60/qpmin=10/qpmax=51/qpstep=4/cplxblur=20.0/qblur=0.5/vbv_maxrate=50000/vbv_bufsize=62500/nal_hrd=none/filler=0/ip_ratio=1.40/pb_ratio=1.30/aq=1:1.00
    Язык : Russian
    Default : Да
    Forced : Нет
    Аудио
    Идентификатор : 2
    Формат : MPEG Audio
    Версия формата : Version 1
    Профиль формата : Layer 2
    Идентификатор кодека : A_MPEG/L2
    Идентификатор кодека/Подсказка : MP2
    Продолжительность : 1 ч. 25 м.
    Вид битрейта : Постоянный
    Битрейт : 224 Кбит/сек
    Каналы : 2 канала
    Частота : 48, 0 КГц
    Частота кадров : 41, 667 кадра/сек (1152 spf)
    Метод сжатия : С потерями
    Размер потока : 136 Мбайт (5%)
    Заголовок : MP2-2 канала
    Язык : Russian
    Default : Да
    Forced : Нет


    Скриншоты для ознакомления




    Онлайн видео Девушка без адреса (1957) HDTVRip [H.264



    Девушка без адреса (1957) HDTVRip [H.264/720p-LQ]
    загрузка...
    Рейтинг →
     (голосов: 1, оценка 3/5, голосовать можно 1 раз )

    Другие торренты по теме:

  • Девушка без адреса (1957) DVDRip [H.264] скачать через торрент бесплатно
  • Девушка без адреса (1957) HDTV [H.264 / 1080i]
  • Девушка без адреса (1957) DVDRip [H.264]
  • Девушка без адреса (1957) DVD5 [hand made remastered]


    • Комментарии (0):

      Информация

      Информация

        Посетители, находящиеся в группе Гости, не могут оставлять комментарии в данной новости.

        ↓ Меню




        ↓ Опрос

        Вы добавили сайт в закладки?
        Да
        Нет


        Top 10 за месяц (Фильмы)