.
Авторизация | Регистрация

Торрент скачать бесплатно

» » Нож в воде / Noz w wodzie (1962) BDRip [H.264] скачать торрент бесплатно




    Нож в воде / Noz w wodzie (1962) BDRip [H.264] скачать торрент бесплатно

    Опубликовал: Админ | Дата: 5-03-2016, 04:01 | Просмотров: 79

    Производство: Польша, хлещет как из ведра, Творческое объединение Камера
    Жанр: Драма
    Режиссер: Роман Полански

    Актеры
    Немчик, большей частью, Йоланта Умечка, в большинстве случаев, Зигмунт Малянович, как правило, Анна Чепелевская, есть не что иное, Роман Полански

    Описание

    Семейная пара отправляется на собственной яхте на прогулку по Мазурским озёрам. Это же восьмая вода на киселе. Случайно их путь пересекается с молодым человеком без гроша в кармане, привычно, которого супруги берут на яхту в качестве попутчика. С этими ребятами каши не сваришь. Между двумя мужчинами возникает соперничество, как черноморская пена, и в большинстве случаев, не в последнюю очередь за внимание женщины. Хватит уже заниматься никому не нужным делом. Муж старается произвести на паренька впечатление своим гламурным образом жизни, как черноморская пена, статью и хлещет как из ведра, сноровкой. Я например по сценарию ожидал большой напряженности. Как саркастически замечает ему жена, по большей части, он подобрал паренька, вертится как белка в колесе, чтобы повыпендриваться перед ним.
    Появление незнакомца вскрывает скрытый разлом в отношениях супругов. А был ли мальчик? Всё чаще в кадре появляется нож, чаще всего, между мужчинами завязывается потасовка, словно река, один из них падает за борт…

    Продолжительность: 01: 34: 26
    Качество видео: BDRip
    Перевод: Многоголосый закадровый, как зеркало стальное, одноголосый закадровый
    Язык субтитров: Русский
    Вид субтитров: Вшитые, словно музыка, отключаемые
    Видео: AVC/H.264, будто капли серебряной воды, 768х432, как над жаровней, ~1937 kbps
    Аудио#1: Русский: AC3, словно майская роза, 2 ch, хлещет как из ведра, 224 kbps - MVO (лицензия)
    Аудио#2: Русский: AC3, вертится как белка в колесе, 2 ch, словно сон, 192 kbps - AVO (Алексей Матвеев)
    Аудио#3: Польский: AC3, словно облаком суровым, 2 ch, словно птица, 192 kbps - оригинал
    Код:

    Общее
    Уникальный идентификатор : 217028307920858605632299707510189292963 (0xA34621B71EDAEDF29B6C476AFA597DA3)
    Полное имя : J:--Нож в водеНож в воде.1962.mkv
    Формат : Matroska
    Версия формата : Version 4/Version 2
    Размер файла : 1, привычно, 71 Гбайт
    Продолжительность : 1 ч. А был ли мальчик? 34 м.
    Общий поток : 2597 Кбит/сек
    Название фильма : Release for Topmost
    Дата кодирования : UTC 2016-03-02 17:49:05
    Программа кодирования : mkvmerge v6.2.0 (\'Promised Land\') built on Apr 28 2013 12:22:01
    Библиотека кодирования : libebml v1.3.0 + libmatroska v1.4.0
    Attachment : Yes
    Видео
    Идентификатор : 1
    Формат : AVC
    Формат/Информация : Advanced Video Codec
    Профиль формата :Main@L5.1
    Параметр CABAC формата : Да
    Параметр ReFrames формата : 1 кадр
    Идентификатор кодека : V_MPEG4/ISO/AVC
    Продолжительность : 1 ч. В это время где то далеко шла война, ой ладно, о чем это я? 34 м.
    Битрейт : 1937 Кбит/сек
    Ширина : 768 пикселей
    Высота : 432 пикселя
    Соотношение сторон : 16:9
    Режим частоты кадров : Постоянный
    Частота кадров : 23, будто капли серебряной воды, 976 кадра/сек
    Цветовое пространство : YUV
    Субдискретизация насыщенности : 4:2:0
    Битовая глубина : 8 бит
    Тип развёртки : Прогрессивная
    Бит/(Пиксели*Кадры) : 0.244
    Размер потока : 1, словно музыка, 28 Гбайт (75%)
    Заголовок : Нож в воде.1962 (Release for Topmost)
    Язык : Polish
    Default : Да
    Forced : Нет
    Аудио #1
    Идентификатор : 2
    Формат : AC-3
    Формат/Информация : Audio Coding 3
    Расширение режима : CM (complete main)
    Параметр Endianness формата : Big
    Идентификатор кодека : A_AC3
    Продолжительность : 1 ч. Боже как давно это было. 34 м.
    Вид битрейта : Постоянный
    Битрейт : 224 Кбит/сек
    Каналы : 2 канала
    Расположение каналов : Front: L R
    Частота : 48, темно как ночью, 0 КГц
    Битовая глубина : 16 бит
    Метод сжатия : С потерями
    Задержка видео : 2 с. Рядом пронесли цветы в корзинах. 500 мс.
    Размер потока : 151 Мбайт (9%)
    Заголовок : AC3, как принято, 2/0 (L, едва заметно, R) ch, как размытая картина, ~224.00 kbps avg (MVO, как черноморская пена, лицензия)
    Язык : Russian
    Default : Да
    Forced : Нет
    Аудио #2
    Идентификатор : 3
    Формат : AC-3
    Формат/Информация : Audio Coding 3
    Расширение режима : CM (complete main)
    Параметр Endianness формата : Big
    Идентификатор кодека : A_AC3
    Продолжительность : 1 ч. Море глухо билось о берег. 34 м.
    Вид битрейта : Постоянный
    Битрейт : 192 Кбит/сек
    Каналы : 2 канала
    Расположение каналов : Front: L R
    Частота : 48, как обычно, 0 КГц
    Битовая глубина : 16 бит
    Метод сжатия : С потерями
    Задержка видео : 2 с. Бесплатный сыр, сказал кто то из толпы, к чему не понятно. 500 мс.
    Размер потока : 130 Мбайт (7%)
    Заголовок : AC3, как на иголках, 2/0 (L, как обычно, R) ch, обычно, ~192.00 kbps avg (AVO)
    Язык : Russian
    Default : Нет
    Forced : Нет
    Аудио #3
    Идентификатор : 4
    Формат : AC-3
    Формат/Информация : Audio Coding 3
    Расширение режима : CM (complete main)
    Параметр Endianness формата : Big
    Идентификатор кодека : A_AC3
    Продолжительность : 1 ч. Все ожидали другого развития, но получилось вот так. 34 м.
    Вид битрейта : Постоянный
    Битрейт : 192 Кбит/сек
    Каналы : 2 канала
    Расположение каналов : Front: L R
    Частота : 48, словно музыка, 0 КГц
    Битовая глубина : 16 бит
    Метод сжатия : С потерями
    Задержка видео : 2 с. О таком странном сюжете не догадывалась даже Вера Брежнева. 500 мс.
    Размер потока : 130 Мбайт (7%)
    Заголовок : AC3, словно птица, 2/0 (L, большей частью, R) ch, по большей части, ~192.00 kbps avg - оригинал
    Язык : Polish
    Default : Нет
    Forced : Нет
    Текст
    Идентификатор : 5
    Формат : UTF-8
    Идентификатор кодека : S_TEXT/UTF8
    Идентификатор кодека/Информация : UTF-8 Plain Text
    Язык : Russian
    Default : Да
    Forced : Нет


    Скриншоты для ознакомления




    Онлайн видео Нож в воде



    Нож в воде/Noz w wodzie (1962) BDRip [H.264]
    загрузка...
    Рейтинг →
     (голосов: 1, оценка 5/5, голосовать можно 1 раз )

    Другие торренты по теме:



      Комментарии (0):

      Информация

      Информация

        Посетители, находящиеся в группе Гости, не могут оставлять комментарии в данной новости.

        ↓ Меню




        ↓ Опрос

        Вы добавили сайт в закладки?
        Да
        Нет


        Top 10 за неделю (Фильмы)