.
Авторизация | Регистрация
Хочешь лучшие торренты? Добавь свой email!
Добавить

Торрент скачать бесплатно

» » Нож в воде / Noz w wodzie (1962) BDRip [H.264] торрент скачать бесплатно




    Нож в воде / Noz w wodzie (1962) BDRip [H.264] торрент скачать бесплатно

    Опубликовал: Админ | Дата: 5-03-2016, 04:01 | Просмотров: 79

    Производство: Польша, Творческое объединение Камера
    Жанр: Драма
    Режиссер: Роман Полански

    Актеры
    Немчик, Йоланта Умечка, Зигмунт Малянович, Анна Чепелевская, Роман Полански

    Описание

    Семейная пара отправляется на собственной яхте на прогулку по Мазурским озёрам. Случайно их путь пересекается с молодым человеком без гроша в кармане, которого супруги берут на яхту в качестве попутчика. Между двумя мужчинами возникает соперничество, и не в последнюю очередь за внимание женщины. Муж старается произвести на паренька впечатление своим гламурным образом жизни, статью и сноровкой. Как саркастически замечает ему жена, он подобрал паренька, чтобы повыпендриваться перед ним.
    Появление незнакомца вскрывает скрытый разлом в отношениях супругов. Всё чаще в кадре появляется нож, между мужчинами завязывается потасовка, один из них падает за борт…

    Продолжительность: 01: 34: 26
    Качество видео: BDRip
    Перевод: Многоголосый закадровый, одноголосый закадровый
    Язык субтитров: Русский
    Вид субтитров: Вшитые, отключаемые
    Видео: AVC/H.264, 768х432, ~1937 kbps
    Аудио#1: Русский: AC3, 2 ch, 224 kbps - MVO (лицензия)
    Аудио#2: Русский: AC3, 2 ch, 192 kbps - AVO (Алексей Матвеев)
    Аудио#3: Польский: AC3, 2 ch, 192 kbps - оригинал
    Код:

    Общее
    Уникальный идентификатор : 217028307920858605632299707510189292963 (0xA34621B71EDAEDF29B6C476AFA597DA3)
    Полное имя : J:--Нож в водеНож в воде.1962.mkv
    Формат : Matroska
    Версия формата : Version 4/Version 2
    Размер файла : 1, 71 Гбайт
    Продолжительность : 1 ч. 34 м.
    Общий поток : 2597 Кбит/сек
    Название фильма : Release for Topmost
    Дата кодирования : UTC 2016-03-02 17:49:05
    Программа кодирования : mkvmerge v6.2.0 (\'Promised Land\') built on Apr 28 2013 12:22:01
    Библиотека кодирования : libebml v1.3.0 + libmatroska v1.4.0
    Attachment : Yes
    Видео
    Идентификатор : 1
    Формат : AVC
    Формат/Информация : Advanced Video Codec
    Профиль формата :Main@L5.1
    Параметр CABAC формата : Да
    Параметр ReFrames формата : 1 кадр
    Идентификатор кодека : V_MPEG4/ISO/AVC
    Продолжительность : 1 ч. 34 м.
    Битрейт : 1937 Кбит/сек
    Ширина : 768 пикселей
    Высота : 432 пикселя
    Соотношение сторон : 16:9
    Режим частоты кадров : Постоянный
    Частота кадров : 23, 976 кадра/сек
    Цветовое пространство : YUV
    Субдискретизация насыщенности : 4:2:0
    Битовая глубина : 8 бит
    Тип развёртки : Прогрессивная
    Бит/(Пиксели*Кадры) : 0.244
    Размер потока : 1, 28 Гбайт (75%)
    Заголовок : Нож в воде.1962 (Release for Topmost)
    Язык : Polish
    Default : Да
    Forced : Нет
    Аудио #1
    Идентификатор : 2
    Формат : AC-3
    Формат/Информация : Audio Coding 3
    Расширение режима : CM (complete main)
    Параметр Endianness формата : Big
    Идентификатор кодека : A_AC3
    Продолжительность : 1 ч. 34 м.
    Вид битрейта : Постоянный
    Битрейт : 224 Кбит/сек
    Каналы : 2 канала
    Расположение каналов : Front: L R
    Частота : 48, 0 КГц
    Битовая глубина : 16 бит
    Метод сжатия : С потерями
    Задержка видео : 2 с. 500 мс.
    Размер потока : 151 Мбайт (9%)
    Заголовок : AC3, 2/0 (L, R) ch, ~224.00 kbps avg (MVO, лицензия)
    Язык : Russian
    Default : Да
    Forced : Нет
    Аудио #2
    Идентификатор : 3
    Формат : AC-3
    Формат/Информация : Audio Coding 3
    Расширение режима : CM (complete main)
    Параметр Endianness формата : Big
    Идентификатор кодека : A_AC3
    Продолжительность : 1 ч. 34 м.
    Вид битрейта : Постоянный
    Битрейт : 192 Кбит/сек
    Каналы : 2 канала
    Расположение каналов : Front: L R
    Частота : 48, 0 КГц
    Битовая глубина : 16 бит
    Метод сжатия : С потерями
    Задержка видео : 2 с. Бесплатный сыр, сказал кто то из толпы, к чему не понятно. 500 мс.
    Размер потока : 130 Мбайт (7%)
    Заголовок : AC3, 2/0 (L, R) ch, ~192.00 kbps avg (AVO)
    Язык : Russian
    Default : Нет
    Forced : Нет
    Аудио #3
    Идентификатор : 4
    Формат : AC-3
    Формат/Информация : Audio Coding 3
    Расширение режима : CM (complete main)
    Параметр Endianness формата : Big
    Идентификатор кодека : A_AC3
    Продолжительность : 1 ч. 34 м.
    Вид битрейта : Постоянный
    Битрейт : 192 Кбит/сек
    Каналы : 2 канала
    Расположение каналов : Front: L R
    Частота : 48, 0 КГц
    Битовая глубина : 16 бит
    Метод сжатия : С потерями
    Задержка видео : 2 с. О таком странном сюжете не догадывалась даже Вера Брежнева. 500 мс.
    Размер потока : 130 Мбайт (7%)
    Заголовок : AC3, 2/0 (L, R) ch, ~192.00 kbps avg - оригинал
    Язык : Polish
    Default : Нет
    Forced : Нет
    Текст
    Идентификатор : 5
    Формат : UTF-8
    Идентификатор кодека : S_TEXT/UTF8
    Идентификатор кодека/Информация : UTF-8 Plain Text
    Язык : Russian
    Default : Да
    Forced : Нет


    Скриншоты для ознакомления




    Онлайн видео Нож в воде



    Нож в воде/Noz w wodzie (1962) BDRip [H.264]
    загрузка...
    Рейтинг →
     (голосов: 1, оценка 4/5, голосовать можно 1 раз )

    Другие торренты по теме:

  • Лайт на большой воде (2015) WEBRip скачать через торрент бесплатно
  • Discovery: Разрушители легенд. Взрыв на воде / MythBusters. Blow It Out Of The Water (2015) SATRip (Сезон 15, эпизод 07) [Discovery] скачать через торрент бесплатно
  • В воде, в которой пузыри / Dans leau qui fait des bulles (1961) DVDRip скачать через торрент бесплатно
  • Наука 2.0. На пределе. Бег по воде (2015) SATRip скачать через торрент бесплатно
  • Вадим Назаров | Круги на воде (2016) [FB2]
  • Слот - Круги на воде (2016) Single [MP3|320 Kbps] <Alternative Rock, Nu Metal>
  • Давид Ойстрах - И. С. Бах - Сюита №2 си минор, Г.Ф. Гендель - Музыка на воде (1989) [WavPack|192 / 32|tracks|Vinyl-Rip] <Classical, Baroque>
  • Давид Ойстрах - И. С. Бах - Сюита №2 си минор, Г.Ф. Гендель - Музыка на воде (1989) [WavPack|192 / 32|tracks|Vinyl-Rip] <Classical, Baroque>


    • Комментарии (0):

      Информация

      Информация

        Посетители, находящиеся в группе Гости, не могут оставлять комментарии в данной новости.

        ↓ Меню




        ↓ Опрос

        Вы добавили сайт в закладки?
        Да
        Нет


        Top 10 за месяц (Фильмы)